Самый пьяный округ в мире скачать торрент в хорошем качестве hd 1080


Самый пьяный округ в мире через торрент

ОбщееУникальный идентификатор : 174382033331336898389403126830455231047 (0x8330C20AB049BEAC8E82C86D38EA9247)Полное имя : .Samij.pjaniy.okrug.v.mire.2012.D.BDRip.1080p..mkvФормат : MatroskaВерсия формата : Version 2Размер файла : 13,1 ГбайтПродолжительность : 1 ч. 55 м.Общий поток : 16,2 Мбит/секНазвание фильма : Lawless (2012) - Release for HDCLUB by docloganДата кодирования : UTC 2013-01-30 01:43:11Программа кодирования : mkvmerge v5.5.0 ('Healer') built on Apr 6 2012 21:43:24Библиотека кодирования : libebml v1.2.3 + libmatroska v1.3.0

ВидеоИдентификатор : 1Формат : AVCФормат/Информация : Advanced Video CodecПрофиль формата : [email protected]Параметр CABAC формата : ДаПараметр ReFrames формата : 5 кадровИдентификатор кодека : V_MPEG4/ISO/AVCПродолжительность : 1 ч. 55 м.Битрейт : 13,9 Мбит/секШирина : 1920 пикселейВысота : 800 пикселейСоотношение сторон : 2,40:1Режим частоты кадров : ПостоянныйЧастота кадров : 23,976 кадра/секЦветовое пространство : YUVСубдискретизация насыщенности : 4:2:0Битовая глубина : 8 битТип развёртки : ПрогрессивнаяБит/(Пиксели*Кадры) : 0.379Размер потока : 11,0 Гбайт (84%)Заголовок : Release for HDCLUB by docloganБиблиотека кодирования : x264 core 125 r2208 d9d2288Настройки программы : cabac=1 / ref=5 / deblock=1:-3:-3 / analyse=0x3:0x113 / me=umh / subme=10 / psy=1 / psy_rd=1.05:0.10 / mixed_ref=1 / me_range=32 / chroma_me=1 / trellis=2 / 8x8dct=1 / cqm=0 / deadzone=21,11 / fast_pskip=0 / chroma_qp_offset=-2 / threads=8 / lookahead_threads=1 / sliced_threads=0 / nr=0 / decimate=1 / interlaced=0 / bluray_compat=0 / constrained_intra=0 / bframes=6 / b_pyramid=2 / b_adapt=2 / b_bias=0 / direct=3 / weightb=1 / open_gop=0 / weightp=2 / keyint=250 / keyint_min=23 / scenecut=40 / intra_refresh=0 / rc=2pass / mbtree=0 / bitrate=13945 / ratetol=1.0 / qcomp=0.70 / qpmin=0 / qpmax=69 / qpstep=4 / cplxblur=20.0 / qblur=0.5 / ip_ratio=1.40 / pb_ratio=1.30 / aq=2:0.90Язык : EnglishDefault : ДаForced : Нет

Аудио #1Идентификатор : 2Формат : DTSФормат/Информация : Digital Theater SystemsРежим : 16Параметр Endianness формата : BigИдентификатор кодека : A_DTSПродолжительность : 1 ч. 55 м.Вид битрейта : ПостоянныйБитрейт : 768 Кбит/секКаналы : 6 каналовРасположение каналов : Front: L C R, Side: L R, LFEЧастота : 48,0 КГцБитовая глубина : 24 битМетод сжатия : С потерямиРазмер потока : 636 Мбайт (5%)Язык : RussianDefault : ДаForced : Нет

Аудио #2Идентификатор : 3Формат : DTSФормат/Информация : Digital Theater SystemsРежим : 16Параметр Endianness формата : BigИдентификатор кодека : A_DTSПродолжительность : 1 ч. 55 м.Вид битрейта : ПостоянныйБитрейт : 1509 Кбит/секКаналы : 6 каналовРасположение каналов : Front: L C R, Side: L R, LFEЧастота : 48,0 КГцБитовая глубина : 24 битМетод сжатия : С потерямиРазмер потока : 1,22 Гбайт (9%)Заголовок : DTS 5.1 @ 1.5 MbpsЯзык : EnglishDefault : НетForced : Нет

Текст #1Идентификатор : 4Формат : UTF-8Идентификатор кодека : S_TEXT/UTF8Идентификатор кодека/Информация : UTF-8 Plain TextЯзык : RussianDefault : ДаForced : Нет

Текст #2Идентификатор : 5Формат : UTF-8Идентификатор кодека : S_TEXT/UTF8Идентификатор кодека/Информация : UTF-8 Plain TextЯзык : EnglishDefault : НетForced : Нет

Меню00:00:00.000 : en:00:00:00.00000:04:36.818 : en:00:04:36.81800:09:16.639 : en:00:09:16.63900:14:39.587 : en:00:14:39.58700:21:55.689 : en:00:21:55.68900:26:34.343 : en:00:26:34.34300:34:23.895 : en:00:34:23.89500:41:06.964 : en:00:41:06.96400:48:30.825 : en:00:48:30.82500:56:45.652 : en:00:56:45.65201:05:11.074 : en:01:05:11.07401:11:21.903 : en:01:11:21.90301:19:30.724 : en:01:19:30.72401:25:00.887 : en:01:25:00.88701:31:49.838 : en:01:31:49.83801:37:32.889 : en:01:37:32.88901:44:44.737 : en:01:44:44.73701:49:07.708 : en:01:49:07.708

piratbit.ru

Самый пьяный округ в мире через торрент

ОбщееУникальный идентификатор : 254100947538212965870305662316392758753 (0xBF2A0FF7E153C02D85B18FC890C83DE1)Полное имя : F:Скачка торрентLawless.2012.BDRip1080p(HDMaNiAcS).mkvФормат : MatroskaВерсия формата : Version 4 / Version 2Размер файла : 15,6 ГбайтПродолжительность : 1 ч. 55 м.Общий поток : 19,3 Мбит/секНазвание фильма : Lawless (2012) by HDMaNiAcSДата кодирования : UTC 2010-02-22 21:41:31Программа кодирования : mkvmerge v5.9.0 ('On The Loose') built on Dec 9 2012 15:37:01Библиотека кодирования : libebml v1.3.0 + libmatroska v1.4.0

ВидеоИдентификатор : 1Формат : AVCФормат/Информация : Advanced Video CodecПрофиль формата : [email protected]Параметр CABAC формата : ДаПараметр ReFrames формата : 5 кадровИдентификатор кодека : V_MPEG4/ISO/AVCБитрейт : 18,0 Мбит/секШирина : 1920 пикселейВысота : 800 пикселейСоотношение сторон : 2,40:1Режим частоты кадров : ПеременныйЧастота кадров в оригинале : 23,976 кадра/секЦветовое пространство : YUVСубдискретизация насыщенности : 4:2:0Битовая глубина : 8 битТип развёртки : ПрогрессивнаяБит/(Пиксели*Кадры) : 0.489Заголовок : Lawless (2012)Библиотека кодирования : x264 core 129 r2230 1cffe9fНастройки программы : cabac=1 / ref=5 / deblock=1:-3:-3 / analyse=0x3:0x113 / me=tesa / subme=11 / psy=1 / psy_rd=0.95:0.00 / mixed_ref=1 / me_range=24 / chroma_me=1 / trellis=2 / 8x8dct=1 / cqm=0 / deadzone=21,11 / fast_pskip=1 / chroma_qp_offset=-2 / threads=12 / lookahead_threads=2 / sliced_threads=0 / nr=0 / decimate=1 / interlaced=0 / bluray_compat=0 / constrained_intra=0 / bframes=8 / b_pyramid=2 / b_adapt=2 / b_bias=0 / direct=3 / weightb=1 / open_gop=0 / weightp=2 / keyint=240 / keyint_min=23 / scenecut=40 / intra_refresh=0 / rc=2pass / mbtree=0 / bitrate=18000 / ratetol=1.0 / qcomp=0.55 / qpmin=10 / qpmax=69 / qpstep=4 / cplxblur=20.0 / qblur=0.5 / ip_ratio=1.40 / pb_ratio=1.30 / aq=2:0.55Язык : EnglishDefault : ДаForced : Нет

Аудио #1Идентификатор : 2Формат : AC-3Формат/Информация : Audio Coding 3Расширение режима : CM (complete main)Параметр Endianness формата : BigИдентификатор кодека : A_AC3Продолжительность : 1 ч. 55 м.Вид битрейта : ПостоянныйБитрейт : 640 Кбит/секКаналы : 6 каналовРасположение каналов : Front: L C R, Side: L R, LFEЧастота : 48,0 КГцБитовая глубина : 16 битМетод сжатия : С потерямиРазмер потока : 530 Мбайт (3%)Заголовок : AC3 / 5.1 ch / 640 kbps / Русский дубляж R5Язык : RussianDefault : ДаForced : Нет

Аудио #2Идентификатор : 3Формат : AC-3Формат/Информация : Audio Coding 3Расширение режима : CM (complete main)Параметр Endianness формата : BigИдентификатор кодека : A_AC3Продолжительность : 1 ч. 55 м.Вид битрейта : ПостоянныйБитрейт : 640 Кбит/секКаналы : 6 каналовРасположение каналов : Front: L C R, Side: L R, LFEЧастота : 48,0 КГцБитовая глубина : 16 битМетод сжатия : С потерямиРазмер потока : 530 Мбайт (3%)Заголовок : AC3 / 5.1 ch / 640 kbps / Английский original BDЯзык : EnglishDefault : НетForced : Нет

Текст #1Идентификатор : 4Формат : UTF-8Идентификатор кодека : S_TEXT/UTF8Идентификатор кодека/Информация : UTF-8 Plain TextЗаголовок : Full [Voronine]Язык : RussianDefault : НетForced : Нет

Текст #2Идентификатор : 5Формат : UTF-8Идентификатор кодека : S_TEXT/UTF8Идентификатор кодека/Информация : UTF-8 Plain TextЗаголовок : Full [lord666]Язык : RussianDefault : НетForced : Нет

Текст #3Идентификатор : 6Формат : UTF-8Идентификатор кодека : S_TEXT/UTF8Идентификатор кодека/Информация : UTF-8 Plain TextЗаголовок : Full [Bilingual]Язык : RussianDefault : НетForced : Нет

Текст #4Идентификатор : 7Формат : UTF-8Идентификатор кодека : S_TEXT/UTF8Идентификатор кодека/Информация : UTF-8 Plain TextЗаголовок : SDH [Bilingual]Язык : RussianDefault : НетForced : Нет

Текст #5Идентификатор : 8Формат : UTF-8Идентификатор кодека : S_TEXT/UTF8Идентификатор кодека/Информация : UTF-8 Plain TextЗаголовок : Full 1Язык : EnglishDefault : НетForced : Нет

Текст #6Идентификатор : 9Формат : UTF-8Идентификатор кодека : S_TEXT/UTF8Идентификатор кодека/Информация : UTF-8 Plain TextЗаголовок : Full 2Язык : EnglishDefault : НетForced : Нет

Текст #7Идентификатор : 10Формат : UTF-8Идентификатор кодека : S_TEXT/UTF8Идентификатор кодека/Информация : UTF-8 Plain TextЗаголовок : Full Язык : EnglishDefault : НетForced : Нет

Текст #8Идентификатор : 11Формат : UTF-8Идентификатор кодека : S_TEXT/UTF8Идентификатор кодека/Информация : UTF-8 Plain TextЗаголовок : SDHЯзык : EnglishDefault : НетForced : Нет

Текст #9Идентификатор : 12Формат : UTF-8Идентификатор кодека : S_TEXT/UTF8Идентификатор кодека/Информация : UTF-8 Plain TextЗаголовок : SDH [color]Язык : EnglishDefault : НетForced : Нет

Меню00:00:00.000 : en:00:00:00.00000:04:36.818 : en:00:04:36.81800:09:16.639 : en:00:09:16.63900:14:39.587 : en:00:14:39.58700:21:55.689 : en:00:21:55.68900:26:34.343 : en:00:26:34.34300:34:23.895 : en:00:34:23.89500:41:06.964 : en:00:41:06.96400:48:30.825 : en:00:48:30.82500:56:45.652 : en:00:56:45.65201:05:11.074 : en:01:05:11.07401:11:21.903 : en:01:11:21.90301:19:30.724 : en:01:19:30.72401:25:00.887 : en:01:25:00.88701:31:49.838 : en:01:31:49.83801:37:32.889 : en:01:37:32.88901:44:44.737 : en:01:44:44.73701:49:07.708 : en:01:49:07.708

piratbit.ru

Самый пьяный округ в мире через торрент

Раздают: 6 [ 0 KB/s ]
Размер: 1.45 GB | Добавлен: 4 года 8 мес. назад | Торрент скачан:14468 раз
Реклама Дарим 3000 рублей за регистрацию, не упусти свой шанс получить шикарный бонус!!!

30-01-2013 07:29 Самый пьяный округ в мире Скачать торрент  

Самый пьяный округ в мире / Lawless

Год выпуска: 2012Страна: СШАЖанр: драма, криминалПродолжительность: 01:55:45Перевод: Дубляж, Лицензия

Режиссер: Джон ХиллкоутПродюссер: Майкл Бенаройя, Меган Эллисон, Люси ФишерСценарий: Ник Кейв, Мэтт Бондурант

Мировой рейтинг IMDB 7.30 (61 534)

В ролях: Шайа ЛаБаф, Том Харди, Гари Олдман, Джессика Честейн, Гай Пирс, Джейсон Кларк, Миа Васиковска, Дэйн ДеХаан, Крис МакГарри, Тим Толин, Михаил Тихонов, Илья Исаев, Валерий Сторожик, Людмила Шувалова, Даниил Щебланов

Описание: Действие в картине разворачивается на американском Юге во времена сухого закона и Великой Депрессии. В центре сюжета — семья Бондурант, три брата, Джек, Форрест и Говард, которые занимаются запрещенным в то время бизнесом, бутлегерством. Оптимистично настроенный Джек, самый молодой из братьев, надеется с помощью бутлегерства заработать денег и произвести впечатление на свою девушку Берту. В это же время Форрест, напротив, настроен очень мрачно, он молчалив и подозрителен, а Говарду к тому же часто приходится иметь дело с врагами незаконного семейного бизнеса, в лице которых выступают коррумпированные местные полицейские.

Качество: HDRipФормат: AVIВидео кодек: XviDАудио кодек: AC3Видео: 720x304 (2.37:1), 23.976 fps, XviD build 50 ~1337 kbps avg, 0.26 bit/pixelАудио#1: 48 kHz, AC3 Dolby Digital, 3/2 (L,C,R,l,r) + LFE ch, ~448 kbps

GeneralComplete name : H:киноSamij.pjaniy.okrug.v.mire.2012.D.HDRip.1.45GB.aviFormat : AVIFormat/Info : Audio Video InterleaveFile size : 1.45 GiBDuration : 1h 55mnOverall bit rate : 1 795 KbpsWriting application : VirtualDubMod 1.5.10.2 (build 2542/release)Writing library : VirtualDubMod build 2542/release

VideoID : 0Format : MPEG-4 VisualFormat profile : Advanced [email protected] settings, BVOP : 1Format settings, QPel : NoFormat settings, GMC : No warppointsFormat settings, Matrix : CustomCodec ID : XVIDCodec ID/Hint : XviDDuration : 1h 55mnBit rate : 1 338 KbpsWidth : 720 pixelsHeight : 304 pixelsDisplay aspect ratio : 2.35:1Frame rate : 23.976 fpsColor space : YUVChroma subsampling : 4:2:0Bit depth : 8 bitsScan type : ProgressiveCompression mode : LossyBits/(Pixel*Frame) : 0.255Stream size : 1.08 GiB (75%)Writing library : XviD 1.2.1 (UTC 2008-12-04)

AudioID : 1Format : AC-3Format/Info : Audio Coding 3Mode extension : CM (complete main)Codec ID : 2000Duration : 1h 55mnBit rate mode : ConstantBit rate : 448 KbpsChannel(s) : 6 channelsChannel positions : Front: L C R, Side: L R, LFESampling rate : 48.0 KHzBit depth : 16 bitsCompression mode : LossyStream size : 371 MiB (25%)Alignment : Split accross interleavesInterleave, duration : 42 ms (1.00 video frame)Interleave, preload duration : 500 ms

Самый пьяный округ в мире скачать торрент

Скачать Самый пьяный округ в мире через торрент http://pic.pb.wtf/images/1/c3xx9m4mau.jpg Скачать фильм Самый пьяный округ в мире через торрент бесплантно в хорошем качестве Описание: Действие в картине разворачивается на американском Юге во времена сухого закона и Великой Депрессии. В центре сюжета — семья ... 2013-01-30 07:29 9.9 10 34

Loading...

Loading...

Рекламный пират

30-01-2013 07:44 Самый пьяный округ в мире Скачать торрент  

30-01-2013 16:26 Самый пьяный округ в мире Скачать торрент  

спасибо, качаю..

30-01-2013 18:06 Самый пьяный округ в мире Скачать торрент  

в кинотеатре не успел посмотреть, в плохом качестве принципиально не смотрю... ОООЧЕНЬ ждал дубляж! Премного благодарен)

02-02-2013 19:16 Самый пьяный округ в мире Скачать торрент  

02-02-2013 20:22 Самый пьяный округ в мире Скачать торрент  

спасибо заценим фильмец !!!!

02-02-2013 21:12 Самый пьяный округ в мире Скачать торрент  

Том Харди мужик!!! :wanted:

02-02-2013 21:26 Самый пьяный округ в мире Скачать торрент  

Спасибо, и давайте скорости!!!!!

02-02-2013 22:55 Самый пьяный округ в мире Скачать торрент  

Смотрел в кино.Всем советую!!! Восхитительные актерская игра, интересная история, работа режиссера, оператора - высший класс!!!Может позже скачаю - пересмотрю, ибо фильм достоин не одноразового просмотра, а гораздо более! :good2:

Pекламный агент PB

03-02-2013 05:54 Самый пьяный округ в мире Скачать торрент  

Отличный фильм!

03-02-2013 06:07 Самый пьяный округ в мире Скачать торрент  

Фильм отличный!

03-02-2013 07:16 Самый пьяный округ в мире Скачать торрент  

кино супер, все смотреть обязательно

03-02-2013 13:17 Самый пьяный округ в мире Скачать торрент  

посмотрим, оценим, спасибо :pleasantry:

03-02-2013 14:09 Самый пьяный округ в мире Скачать торрент  

Я просто в восторге от этого фильма! На самом деле игра актёров на высшем уровне, и их состав лишает слов!

03-02-2013 15:20 Самый пьяный округ в мире Скачать торрент  

не разделяю восторга постов выше по мне просто сняли отрезок жизни определенного героя игра актеров хорошая НО СЮЖЕТ...................

03-02-2013 17:37 Самый пьяный округ в мире Скачать торрент  

[Dante] писал(а):

Том Харди мужик!!! :wanted:

Джессика Честейн-баба!!!

03-02-2013 18:24 Самый пьяный округ в мире Скачать торрент  

Потрясный фильм!

Pекламный агент PB

03-02-2013 18:28 Самый пьяный округ в мире Скачать торрент  

Спасибо, забираю!!!

03-02-2013 19:38 Самый пьяный округ в мире Скачать торрент  

нет, ну шайа лябаф - это ооооо, а Том Харди - это вообще ОООО, будь я женщиной, я б ему отдался. А фильм хороший.

03-02-2013 19:53 Самый пьяный округ в мире Скачать торрент  

Фильм хорош...давно я такого не смотрел.Сразу захтелось еще разок пройти МАфию 2)Качаем ребятки и не жалеем...кинцо на 5 из 5.

04-02-2013 10:07 Самый пьяный округ в мире Скачать торрент  

как по мне ничего яркого в этом фильме вообще нет!!!

04-02-2013 11:47 Самый пьяный округ в мире Скачать торрент  

5 из 5..определённо!!!Фильм в коллекцию..обязательно буду пересматривать!

04-02-2013 14:06 Самый пьяный округ в мире Скачать торрент  

Отличный фильм!Всем советую!

04-02-2013 18:30 Самый пьяный округ в мире Скачать торрент  

Судя по вашим коментариям фильм достойный что бы потратить время на просмотр. Спасибо, качаю.

04-02-2013 20:00 Самый пьяный округ в мире Скачать торрент  

в целом фильм не плохой. Интересный.

Pекламный агент PB

Дорогой пользователь! Огромная просьба, поблагодарите релизера, оцените раздачу и оставьте свои комментарий, если Вы скачали Самый пьяный округ в мире через торрент бесплатно! Внесите свою лепту в развитие PiratBit!

Комментировать посты могут только пользователи прошедшие не сложную регистрацию

Самый пьяный округ в мире через торрент Скачать бесплатно Самый пьяный округ в мире Самый пьяный округ в мире скачать торрент Самый пьяный округ в мире смотреть онлайн Cкачать фильм Самый пьяный округ в мире бесплатно Самый пьяный округ в мире скачать торрент в хорошем качестве Самый пьяный округ в мире смотреть онлайн бесплатно в хорошем качестве

Вы не можете начинать темыВы не можете отвечать на сообщенияВы не можете редактировать свои сообщенияВы не можете удалять свои сообщенияВы не можете голосовать в опросахВы не можете прикреплять файлы к сообщениямВы можете скачивать файлы

piratbit.ru

Скачать Самый пьяный округ в мире через торрент

Категория: Фильмы 1588 0 Торрент добавлен: 17-04-2015 Рейтинг:

Название: Самый пьяный округ в мире / Lawless 2012 / Драма, криминал, вестерн / 115 мин.Режиссер: Джон ХиллкоутСтрана: СШАВ ролях: Шайа ЛаБаф, Том Харди, Гари Олдман, Джессика Честейн, Гай Пирс, Миа Васиковска, Дэйн ДеХаан, Ноа Тейлор, Джейсон Кларк, Лью Темпл, Билл Кэмп, Брюс МакКиннон, Эрик Менденхолл, Рэндолл Фрэнкс, Крис МакГарри, Уильям Дж. Харрисон, Алекс Ван, Рон Клинтон Смит, Рики Мьюз, Джоэль Роджерс, Дэррил Букер, Тревор Александр Манн, Дункан Николсон, Тони Бирд, Джефф Браун, Кортни Пенни, Райли Канторик, Йен Мазер

Фильм снят по одноимённому роману Мэтта Бондюранта. Сюжет разворачивается во времена сухого закона и Великой депрессии в американском штате Вирджиния. Семейство Бондурат, состоящее из трёх братьев, занимается нелегальной торговлей спиртным в округе Франклин. Самый младший из них, оптимист Джек, мечтает заработать побольше денег, чтобы покорить сердце возлюбленной Берты. Форест - самый мрачный из братьев, а Говард берёт на себя решение проблем с коррумпированными блюстителями закона.

Трейлер к фильму Самый пьяный округ в мире

Самый пьяный округ в мире скачать торрент

Формат: BDMVВидео кодек: AVCАудио кодек: DTSВидео: MPEG-4 AVC, 22 Мбит/с, 1920x1080 Аудио: Аудио 1: Русский (DTS-HD MA, 8 ch, 3007 Кбит/c) Проф. (полное дублирование) 31,76 Gb

скачать

Формат: MKVВидео кодек: H.26xАудио кодек: AC3Видео: 4958 kb/s, 1920x800, 23.976 fps Аудио: AC3, 448 kb/s (6Ch) Проф. (полное дублирование)

4,37 Gb

Формат: AVIВидео кодек: XviDАудио кодек: AC3Видео: 720x304 (2.37:1), 23.976 fps, XviD build 50 ~1337 kbps avg, 0.26 bit/pixel Аудио: 48 kHz, AC3 Dolby Digital, 3/2 (L,C,R,l,r) + LFE ch, ~448.00 kbps avg Проф. (полное дублирование)

скачать

Вы находитесь на странице, где можете совершенно бесплатно скачать фильм Самый пьяный округ в мире в хорошем качестве через торрент, в любом формате, который больше всего вам на данный момент подходит. Скачивание осуществляется через торрент, что означает максимально высокую скорость загрузки. Желаем Вам приятного просмотра!. Не забудь поделиться своими впечатлениями после того как посмотришь фильм Самый пьяный округ в мире.

Информация Посетители, находящиеся в группе Гости, не могут оставлять комментарии к данной публикации.

psp-gu.ru

rutor.org :: Самый пьяный округ в мире / Lawless (2012) BDRip 1080p

Информация о фильмеНазвание: Самый пьяный округ в миреОригинальное название: LawlessГод выхода: 2012Жанр: драма, криминалРежиссер: Джон ХиллкоутВ ролях: Шайа ЛаБаф, Том Харди, Гари Олдман, Джессика Честейн, Гай Пирс, Джейсон Кларк, Миа Васиковска, Дэйн ДеХаан, Крис МакГарри, Тим Толин

О фильме: Действие в картине разворачивается на американском Юге во времена сухого закона и Великой Депрессии. В центре сюжета — семья Бондурант, три брата, Джек, Форрест и Говард, которые занимаются запрещенным в то время бизнесом, бутлегерством.

Оптимистично настроенный Джек, самый молодой из братьев, надеется с помощью бутлегерства заработать денег и произвести впечатление на свою девушку Берту. В это же время Форрест, напротив, настроен очень мрачно, он молчалив и подозрителен, а Говарду к тому же часто приходится иметь дело с врагами незаконного семейного бизнеса, в лице которых выступают коррумпированные местные полицейские.

Доп. информация: Международная версия фильма. С чуть изменённым текстом в некоторых местах и чуть более кровавая.

Выпущено: FilmNation EntertainmentПродолжительность: 01:56:03Перевод: Дублированный (лицензия) + Авторский (Ю.Сербин)

ФайлКодек: x264Качество: BDRip (источник: Blu-ray Disc)Видео: 1920x800 (2,40:1), 23.976 fps, 8235 kbpsАудио #1: AC-3, 6 ch, 448 kbps (Дубляж)Аудио #2: AC-3, 6 ch, 448 kbps (Одноголосый закадровый, Ю.Сербин)Аудио #3: AC-3, 6 ch, 448 kbps (Original)Субтитры: Русские, АнглийскиеСкачать: сэмпл

Скриншоты

MI

Общее Уникальный идентификатор : 203775310134945678082247618897817713389 (0x994DB279D5FF8DF686FBE75AD6E13AED) Полное имя : Lawless.2012.BDRip.1080p.Rus.Eng.mkv Формат : Matroska Версия формата : Version 2 Размер файла : 7,76 Гбайт Продолжительность : 1 ч. 56 м. Общий поток : 9549 Кбит/сек Название фильма : Самый пьяный округ в мире / Lawless (2012) | International Cut Дата кодирования : UTC 2013-02-27 08:37:49 Программа кодирования : mkvmerge v5.8.0 ('No Sleep / Pillow') built on Sep 2 2012 15:37:04 Библиотека кодирования : libebml v1.2.3 + libmatroska v1.3.0

Видео Идентификатор : 1 Формат : AVC Формат/Информация : Advanced Video Codec Профиль формата : [email protected] Параметр CABAC формата : Да Параметр ReFrames формата : 5 кадров Идентификатор кодека : V_MPEG4/ISO/AVC Продолжительность : 1 ч. 56 м. Битрейт : 8233 Кбит/сек Ширина : 1920 пикселей Высота : 800 пикселей Соотношение сторон : 2,40:1 Частота кадров : 23,976 кадра/сек Цветовое пространство : YUV Субдискретизация насыщенности : 4:2:0 Битовая глубина : 8 бит Тип развёртки : Прогрессивная Бит/(Пиксели*Кадры) : 0.224 Размер потока : 6,52 Гбайт (84%) Заголовок : Release by AlexKa Библиотека кодирования : x264 core 129 r2245 bc13772 Настройки программы : cabac=1 / ref=5 / deblock=1:-3:-3 / analyse=0x3:0x133 / me=umh / subme=10 / psy=1 / psy_rd=1.00:0.00 / mixed_ref=1 / me_range=32 / chroma_me=1 / trellis=2 / 8x8dct=1 / cqm=0 / deadzone=21,11 / fast_pskip=0 / chroma_qp_offset=-2 / threads=12 / lookahead_threads=2 / sliced_threads=0 / nr=0 / decimate=0 / interlaced=0 / bluray_compat=0 / constrained_intra=0 / bframes=5 / b_pyramid=2 / b_adapt=2 / b_bias=0 / direct=3 / weightb=1 / open_gop=0 / weightp=2 / keyint=240 / keyint_min=23 / scenecut=40 / intra_refresh=0 / rc=2pass / mbtree=0 / bitrate=8233 / ratetol=1.0 / qcomp=0.60 / qpmin=0 / qpmax=69 / qpstep=4 / cplxblur=20.0 / qblur=0.5 / ip_ratio=1.40 / pb_ratio=1.30 / aq=1:0.80 Язык : English

Аудио #1 Идентификатор : 2 Формат : AC-3 Формат/Информация : Audio Coding 3 Расширение режима : CM (complete main) Идентификатор кодека : A_AC3 Продолжительность : 1 ч. 56 м. Вид битрейта : Постоянный Битрейт : 448 Кбит/сек Каналы : 6 каналов Расположение каналов : Front: L C R, Side: L R, LFE Частота : 48,0 КГц Битовая глубина : 16 бит Метод сжатия : С потерями Размер потока : 373 Мбайт (5%) Заголовок : Дубляж Язык : Russian

Аудио #2 Идентификатор : 3 Формат : AC-3 Формат/Информация : Audio Coding 3 Расширение режима : CM (complete main) Идентификатор кодека : A_AC3 Продолжительность : 1 ч. 56 м. Вид битрейта : Постоянный Битрейт : 448 Кбит/сек Каналы : 6 каналов Расположение каналов : Front: L C R, Side: L R, LFE Частота : 48,0 КГц Битовая глубина : 16 бит Метод сжатия : С потерями Размер потока : 373 Мбайт (5%) Заголовок : Одноголосый закадровый, Ю.Сербин Язык : Russian

Аудио #3 Идентификатор : 4 Формат : AC-3 Формат/Информация : Audio Coding 3 Расширение режима : CM (complete main) Идентификатор кодека : A_AC3 Продолжительность : 1 ч. 56 м. Вид битрейта : Постоянный Битрейт : 448 Кбит/сек Каналы : 6 каналов Расположение каналов : Front: L C R, Side: L R, LFE Частота : 48,0 КГц Битовая глубина : 16 бит Метод сжатия : С потерями Размер потока : 373 Мбайт (5%) Заголовок : Original Язык : English

Текст #1 Идентификатор : 5 Формат : UTF-8 Идентификатор кодека : S_TEXT/UTF8 Идентификатор кодека/Информация : UTF-8 Plain Text Заголовок : Rus Язык : Russian

Текст #2 Идентификатор : 6 Формат : UTF-8 Идентификатор кодека : S_TEXT/UTF8 Идентификатор кодека/Информация : UTF-8 Plain Text Заголовок : Eng Язык : English

Меню 00:00:00.000 : :Chapter 01 00:04:36.818 : :Chapter 02 00:09:16.638 : :Chapter 03 00:14:39.587 : :Chapter 04 00:21:55.689 : :Chapter 05 00:26:34.342 : :Chapter 06 00:34:23.895 : :Chapter 07 00:41:06.964 : :Chapter 08 00:48:30.825 : :Chapter 09 00:56:45.652 : :Chapter 10 01:05:11.073 : :Chapter 11 01:11:21.903 : :Chapter 12 01:19:30.724 : :Chapter 13 01:25:00.887 : :Chapter 14 01:31:49.838 : :Chapter 15 01:37:32.889 : :Chapter 16 01:44:44.737 : :Chapter 17 01:49:07.708 : :Chapter 18

x264

x264 [info]: frame I:1207 Avg QP:17.63 size:246700 x264 [info]: frame P:35747 Avg QP:19.80 size: 80467 x264 [info]: frame B:129997 Avg QP:21.87 size: 30691

main-rutor.org


Смотрите также