Скачать через торрент звездный десант 3 в хорошем качестве


Скачать фильм Звездный десант 3: Мародер (2008) через торрент

29 июня 2016 10:27 Звездный десант 3: Мародер / Starship Troopers 3: Marauder (2008) BDRip 1080p by msltel | P .torrent   [Информация о файле (нажмите для просмотра)] Перевод: профессиональный многоголосыйСубтитры: английскиеКачество: BDRip 1080pСравнение с исходникомФормат: MKVВидео: 14.7 Mbps, 1920x1040, 23.976 кадра/с, 0.307 bppАудио 1: русский, AC3, 448 kbps, 6 ch, 48 kHz [профессиональный многоголосый]Аудио 2: английский, AC3, 448 kbps, 6 ch, 48 kHz [оригинал]Видео: Идентификатор : 1 Формат : AVC Формат/Информация : Advanced Video Codec Профиль формата : [email protected] Параметр CABAC формата : Да Параметр ReFrames формата : 4 кадра Идентификатор кодека : V_MPEG4/ISO/AVC Продолжительность : 1 ч. 44 м. Битрейт : 14,7 Мбит/сек Ширина : 1920 пикселей Высота : 1040 пикселей Соотношение сторон : 1,85:1 Режим частоты кадров : Постоянный Частота кадров : 23,976 кадра/сек Цветовое пространство : YUV Субдискретизация насыщенности : 4:2:0 Битовая глубина : 8 бит Тип развёртки : Прогрессивная Бит/(Пиксели*Кадры) : 0.307 Размер потока : 10,8 Гбайт (92%) Заголовок : BDRip -- STarankov Библиотека кодирования : x264 core 142 r2431 ac76440 Настройки программы : cabac=1 / ref=4 / deblock=1:-1:-1 / analyse=0x3:0x113 / me=umh / subme=10 / psy=1 / psy_rd=1.00:0.15 / mixed_ref=1 / me_range=32 / chroma_me=1 / trellis=2 / 8x8dct=1 / cqm=0 / deadzone=21,11 / fast_pskip=1 / chroma_qp_offset=-3 / threads=6 / lookahead_threads=1 / sliced_threads=0 / nr=0 / decimate=1 / interlaced=0 / bluray_compat=0 / constrained_intra=0 / bframes=8 / b_pyramid=2 / b_adapt=2 / b_bias=0 / direct=3 / weightb=1 / open_gop=0 / weightp=2 / keyint=230 / keyint_min=23 / scenecut=40 / intra_refresh=0 / rc_lookahead=40 / rc=crf / mbtree=0 / crf=19.9 / qcomp=0.60 / qpmin=0 / qpmax=69 / qpstep=4 / vbv_maxrate=50000 / vbv_bufsize=62500 / crf_max=0.0 / nal_hrd=none / filler=0 / ip_ratio=1.40 / pb_ratio=1.30 / aq=1:1.00 Язык : English Default : Да Forced : Нет DURATION : 01:44:54.831000000 NUMBER_OF_FRAMES : 150925 NUMBER_OF_BYTES : 11795172756 _STATISTICS_WRITING_APP : mkvmerge v7.3.0 ('Nouages') 64bit built on Oct 22 2014 18:53:34 _STATISTICS_WRITING_DATE_UTC : 2014-11-01 03:09:49 _STATISTICS_TAGS : BPS DURATION NUMBER_OF_FRAMES NUMBER_OF_BYTESАудио #1: Идентификатор : 2 Формат : AC-3 Формат/Информация : Audio Coding 3 Расширение режима : CM (complete main) Параметр Endianness формата : Big Идентификатор кодека : A_AC3 Продолжительность : 1 ч. 44 м. Вид битрейта : Постоянный Битрейт : 448 Кбит/сек Каналы : 6 каналов Расположение каналов : Front: L C R, Side: L R, LFE Частота : 48,0 КГц Битовая глубина : 16 бит Метод сжатия : С потерями Размер потока : 336 Мбайт (3%) Заголовок : MVO Язык : Russian Default : Да Forced : НетАудио #2: Идентификатор : 3 Формат : AC-3 Формат/Информация : Audio Coding 3 Расширение режима : CM (complete main) Параметр Endianness формата : Big Идентификатор кодека : A_AC3 Продолжительность : 1 ч. 44 м. Вид битрейта : Постоянный Битрейт : 448 Кбит/сек Каналы : 6 каналов Расположение каналов : Front: L C R, Side: L R, LFE Частота : 48,0 КГц Битовая глубина : 16 бит Метод сжатия : С потерями Размер потока : 336 Мбайт (3%) Заголовок : Original Язык : English Default : Нет Forced : Нет 11,64 Gb 5 3 29 июня 2016 10:27 Звездный десант 3: Мародер / Starship Troopers 3: Marauder (2008) BDRip 720p by msltel | P .torrent   [Информация о файле (нажмите для просмотра)] Перевод: профессиональный многоголосыйСубтитры: английскиеКачество: BDRip 720pСравнение с исходникомФормат: MKVВидео: 6482 kbps, 1280x694, 23.976 кадра/с, 0.304 bppАудио 1: русский, AC3, 448 kbps, 6 ch, 48 kHz [профессиональный многоголосый]Аудио 2: английский, AC3, 448 kbps, 6 ch, 48 kHz [оригинал]Видео: Идентификатор : 1 Формат : AVC Формат/Информация : Advanced Video Codec Профиль формата : [email protected] Параметр CABAC формата : Да Параметр ReFrames формата : 9 кадров Идентификатор кодека : V_MPEG4/ISO/AVC Продолжительность : 1 ч. 44 м. Битрейт : 6482 Кбит/сек Ширина : 1280 пикселей Высота : 694 пикселя Соотношение сторон : 1,85:1 Режим частоты кадров : Постоянный Частота кадров : 23,976 кадра/сек Цветовое пространство : YUV Субдискретизация насыщенности : 4:2:0 Битовая глубина : 8 бит Тип развёртки : Прогрессивная Бит/(Пиксели*Кадры) : 0.304 Размер потока : 4,75 Гбайт (86%) Заголовок : BDRip -- STarankov Библиотека кодирования : x264 core 142 r2431 ac76440 Настройки программы : cabac=1 / ref=9 / deblock=1:-1:-1 / analyse=0x3:0x113 / me=umh / subme=10 / psy=1 / psy_rd=1.00:0.15 / mixed_ref=1 / me_range=32 / chroma_me=1 / trellis=2 / 8x8dct=1 / cqm=0 / deadzone=21,11 / fast_pskip=1 / chroma_qp_offset=-3 / threads=6 / lookahead_threads=1 / sliced_threads=0 / nr=0 / decimate=1 / interlaced=0 / bluray_compat=0 / constrained_intra=0 / bframes=8 / b_pyramid=2 / b_adapt=2 / b_bias=0 / direct=3 / weightb=1 / open_gop=0 / weightp=2 / keyint=230 / keyint_min=23 / scenecut=40 / intra_refresh=0 / rc_lookahead=40 / rc=crf / mbtree=0 / crf=19.5 / qcomp=0.60 / qpmin=0 / qpmax=69 / qpstep=4 / vbv_maxrate=50000 / vbv_bufsize=62500 / crf_max=0.0 / nal_hrd=none / filler=0 / ip_ratio=1.40 / pb_ratio=1.30 / aq=1:1.00 Язык : English Default : Да Forced : Нет _STATISTICS_WRITING_APP : mkvmerge v7.3.0 ('Nouages') 64bit built on Oct 22 2014 18:53:34 _STATISTICS_WRITING_DATE_UTC : 2014-10-31 13:17:24 _STATISTICS_TAGS : BPS DURATION NUMBER_OF_FRAMES NUMBER_OF_BYTES DURATION : 01:44:54.831000000 NUMBER_OF_FRAMES : 150925 NUMBER_OF_BYTES : 5216780753Аудио #1: Идентификатор : 2 Формат : AC-3 Формат/Информация : Audio Coding 3 Расширение режима : CM (complete main) Параметр Endianness формата : Big Идентификатор кодека : A_AC3 Продолжительность : 1 ч. 44 м. Вид битрейта : Постоянный Битрейт : 448 Кбит/сек Каналы : 6 каналов Расположение каналов : Front: L C R, Side: L R, LFE Частота : 48,0 КГц Битовая глубина : 16 бит Метод сжатия : С потерями Размер потока : 336 Мбайт (6%) Заголовок : MVO Язык : Russian Default : Да Forced : НетАудио #2: Идентификатор : 3 Формат : AC-3 Формат/Информация : Audio Coding 3 Расширение режима : CM (complete main) Параметр Endianness формата : Big Идентификатор кодека : A_AC3 Продолжительность : 1 ч. 44 м. Вид битрейта : Постоянный Битрейт : 448 Кбит/сек Каналы : 6 каналов Расположение каналов : Front: L C R, Side: L R, LFE Частота : 48,0 КГц Битовая глубина : 16 бит Метод сжатия : С потерями Размер потока : 336 Мбайт (6%) Заголовок : Original Язык : English Default : Нет Forced : Нет 5,52 Gb 7 3 29 июня 2016 10:27 Звездный десант 3: Мародер / Starship Troopers 3: Marauder (2008) BDRip 1080p .torrent   [Информация о файле (нажмите для просмотра)] Формат: MKVКачество: BDRip 1080pВидео: 1920x1040, 25 fps, 9330 KbpsАудио: AC3, 48 KHz, 6 ch, 448 kbps 7,17 Gb 2 4 29 июня 2016 10:26 Звездный десант 3: Мародер / Starship Troopers 3: Marauder (2008) BDRip 1080p от Freeisland .torrent   [Информация о файле (нажмите для просмотра)] Перевод: Профессиональный (многоголосый)Кодек: н264Качество: BDRip 1080Видео: 1920х1040 (16:9), 5518 Кбит/сек, 23,976 кадр/сек, 0.115 bit/pixelЗвук: 48 kHz, AC3, 3/2 (L,C,R,l,r) + LFE ch, ~448.00 kbps avg [Рус] 48 kHz, AC3, 3/2 (L,C,R,l,r) + LFE ch, ~384.00 kbps avg [Англ. отдельно]Субтитры: Английские 4,65 Gb 3 3 29 июня 2016 10:26 Звездный десант 3: Мародер / Starship Troopers 3: Marauder (2008) BDRip от HELLYWOOD .torrent   [Информация о файле (нажмите для просмотра)] Перевод: Русский профессиональный перевод + Оригинальная звуковая дорожкаСубтитры: Английские, английские forced внешние srt byHELLRAiSERФормат: AVIКачество: BDRip (источник: Видео: 704x384 (1.83:1), 23.976 fps, XviD build 50 ~2077 kbps avg, 0.32 bit/pixelЗвук #1: 48 kHz, AC3 Dolby Digital, 3/2 (L,C,R,l,r) + LFE ch, ~448 kbpsЗвук #2: 48 kHz, AC3 Dolby Digital, 3/2 (L,C,R,l,r) + LFE ch, ~448 kbps 2,18 Gb 4 2 29 июня 2016 10:26 Звездный десант 3 / Starship Troopers 3: Marauder (2008) BDRip 1080p от PlanetaUA .torrent   [Информация о файле (нажмите для просмотра)] Качество: BDRip 1080pФормат: MKVВидео: 1920x1040, 23.976fps, 9330 KbpsАудио 1: AC3, 48.0 KHz, 448 kbpsАудио 2: DTS, 48.0 kHz, 1536 Kbps 8,27 Gb 3 2 29 июня 2016 10:26 Звездный десант 3: Мародер / Starship Troopers 3: Marauder (2008) BDRip от HQ-ViDEO .torrent   [Информация о файле (нажмите для просмотра)] Перевод: Русский профессиональный перевод многоголосый + Оригинальная дорожкаКодек: XviDКачество: BDRipВидео: 720x384, 23.976 fps, 2079 kbps, 0.31 bit/pixel, XviD MPEG-4Звук: Audio #1 (RUS): 48 kHz, 6 ch, 448.00 kbps, AC3 Dolby Digital Audio #2 (ENG): 48 kHz, 6 ch, 448.00 kbps, AC3 Dolby Digital 2,19 Gb 3 3 29 июня 2016 10:26 Звездный десант 3: Мародер / Starship Troopers 3: Marauder (2008) DVDRip .torrent   [Информация о файле (нажмите для просмотра)] Формат: XviDКачество: DVDRipВидео: 1408 kb/s, 656x352Аудио: AC3, 448 kb/s (6 ch) 1,36 Gb 23 3

gig-torrent.net

Мародер через торрент в хорошем качестве бесплатно 1080p

frame I:1190 Avg QP:17.86 size:223653frame P:31868 Avg QP:19.19 size:116039frame B:117867 Avg QP:21.51 size: 66440

ОбщееУникальный идентификатор : 227863002593676169712200025353699362099 (0xAB6CD167E0F9301A9ABE7B966B128533)Полное имя : D:VideoZvezdnyj desant 3.2008.BDRip.1080p.mkvФормат : MatroskaВерсия формата : Version 4 / Version 2Размер файла : 11,6 ГбайтПродолжительность : 1 ч. 44 м.Общий поток : 15,9 Мбит/секДата кодирования : UTC 2014-11-01 03:09:49Программа кодирования : mkvmerge v7.3.0 ('Nouages') 64bit built on Oct 22 2014 18:53:34Библиотека кодирования : libebml v1.3.0 + libmatroska v1.4.1_STATISTICS_WRITING_APP : mkvmerge v7.3.0 ('Nouages') 64bit built on Oct 22 2014 18:53:34_STATISTICS_WRITING_DATE_UTC : 2014-11-01 03:09:49_STATISTICS_TAGS : BPS DURATION NUMBER_OF_FRAMES NUMBER_OF_BYTESDURATION : 01:36:00.003000000NUMBER_OF_FRAMES : 1175NUMBER_OF_BYTES : 43807

ВидеоИдентификатор : 1Формат : AVCФормат/Информация : Advanced Video CodecПрофиль формата : [email protected]Параметр CABAC формата : ДаПараметр ReFrames формата : 4 кадраИдентификатор кодека : V_MPEG4/ISO/AVCПродолжительность : 1 ч. 44 м.Битрейт : 14,7 Мбит/секШирина : 1920 пикселейВысота : 1040 пикселейСоотношение сторон : 1,85:1Режим частоты кадров : ПостоянныйЧастота кадров : 23,976 кадра/секЦветовое пространство : YUVСубдискретизация насыщенности : 4:2:0Битовая глубина : 8 битТип развёртки : ПрогрессивнаяБит/(Пиксели*Кадры) : 0.307Размер потока : 10,8 Гбайт (92%)Заголовок : BDRip -- STarankovБиблиотека кодирования : x264 core 142 r2431 ac76440Настройки программы : cabac=1 / ref=4 / deblock=1:-1:-1 / analyse=0x3:0x113 / me=umh / subme=10 / psy=1 / psy_rd=1.00:0.15 / mixed_ref=1 / me_range=32 / chroma_me=1 / trellis=2 / 8x8dct=1 / cqm=0 / deadzone=21,11 / fast_pskip=1 / chroma_qp_offset=-3 / threads=6 / lookahead_threads=1 / sliced_threads=0 / nr=0 / decimate=1 / interlaced=0 / bluray_compat=0 / constrained_intra=0 / bframes=8 / b_pyramid=2 / b_adapt=2 / b_bias=0 / direct=3 / weightb=1 / open_gop=0 / weightp=2 / keyint=230 / keyint_min=23 / scenecut=40 / intra_refresh=0 / rc_lookahead=40 / rc=crf / mbtree=0 / crf=19.9 / qcomp=0.60 / qpmin=0 / qpmax=69 / qpstep=4 / vbv_maxrate=50000 / vbv_bufsize=62500 / crf_max=0.0 / nal_hrd=none / filler=0 / ip_ratio=1.40 / pb_ratio=1.30 / aq=1:1.00Язык : EnglishDefault : ДаForced : НетDURATION : 01:44:54.831000000NUMBER_OF_FRAMES : 150925NUMBER_OF_BYTES : 11795172756_STATISTICS_WRITING_APP : mkvmerge v7.3.0 ('Nouages') 64bit built on Oct 22 2014 18:53:34_STATISTICS_WRITING_DATE_UTC : 2014-11-01 03:09:49_STATISTICS_TAGS : BPS DURATION NUMBER_OF_FRAMES NUMBER_OF_BYTES

Аудио #1Идентификатор : 2Формат : AC-3Формат/Информация : Audio Coding 3Расширение режима : CM (complete main)Параметр Endianness формата : BigИдентификатор кодека : A_AC3Продолжительность : 1 ч. 44 м.Вид битрейта : ПостоянныйБитрейт : 448 Кбит/секКаналы : 6 каналовРасположение каналов : Front: L C R, Side: L R, LFEЧастота : 48,0 КГцБитовая глубина : 16 битМетод сжатия : С потерямиРазмер потока : 336 Мбайт (3%)Заголовок : MVOЯзык : RussianDefault : ДаForced : Нет

Аудио #2Идентификатор : 3Формат : AC-3Формат/Информация : Audio Coding 3Расширение режима : CM (complete main)Параметр Endianness формата : BigИдентификатор кодека : A_AC3Продолжительность : 1 ч. 44 м.Вид битрейта : ПостоянныйБитрейт : 448 Кбит/секКаналы : 6 каналовРасположение каналов : Front: L C R, Side: L R, LFEЧастота : 48,0 КГцБитовая глубина : 16 битМетод сжатия : С потерямиРазмер потока : 336 Мбайт (3%)Заголовок : OriginalЯзык : EnglishDefault : НетForced : Нет

ТекстИдентификатор : 4Формат : UTF-8Идентификатор кодека : S_TEXT/UTF8Идентификатор кодека/Информация : UTF-8 Plain TextЗаголовок : английскийЯзык : EnglishDefault : НетForced : Нет

piratbit.ru

Мародер через торрент в хорошем качестве бесплатно 720p

frame I:1414 Avg QP:17.58 size:125831frame P:32201 Avg QP:19.21 size: 56888frame B:117310 Avg QP:21.57 size: 27338

ОбщееУникальный идентификатор : 217705334554223258814141788269475163521 (0xA3C885B49B3037A69E3BC5DD779A6D81)Полное имя : D:VideoZvezdnyj desant 3.2008.BDRip.720p.mkvФормат : MatroskaВерсия формата : Version 4 / Version 2Размер файла : 5,52 ГбайтПродолжительность : 1 ч. 44 м.Общий поток : 7528 Кбит/секДата кодирования : UTC 2014-10-31 13:17:24Программа кодирования : mkvmerge v7.3.0 ('Nouages') 64bit built on Oct 22 2014 18:53:34Библиотека кодирования : libebml v1.3.0 + libmatroska v1.4.1_STATISTICS_WRITING_APP : mkvmerge v7.3.0 ('Nouages') 64bit built on Oct 22 2014 18:53:34_STATISTICS_WRITING_DATE_UTC : 2014-10-31 13:17:24_STATISTICS_TAGS : BPS DURATION NUMBER_OF_FRAMES NUMBER_OF_BYTESDURATION : 01:44:54.848000000NUMBER_OF_FRAMES : 196714NUMBER_OF_BYTES : 352511488

ВидеоИдентификатор : 1Формат : AVCФормат/Информация : Advanced Video CodecПрофиль формата : [email protected]Параметр CABAC формата : ДаПараметр ReFrames формата : 9 кадровИдентификатор кодека : V_MPEG4/ISO/AVCПродолжительность : 1 ч. 44 м.Битрейт : 6482 Кбит/секШирина : 1280 пикселейВысота : 694 пикселяСоотношение сторон : 1,85:1Режим частоты кадров : ПостоянныйЧастота кадров : 23,976 кадра/секЦветовое пространство : YUVСубдискретизация насыщенности : 4:2:0Битовая глубина : 8 битТип развёртки : ПрогрессивнаяБит/(Пиксели*Кадры) : 0.304Размер потока : 4,75 Гбайт (86%)Заголовок : BDRip -- STarankovБиблиотека кодирования : x264 core 142 r2431 ac76440Настройки программы : cabac=1 / ref=9 / deblock=1:-1:-1 / analyse=0x3:0x113 / me=umh / subme=10 / psy=1 / psy_rd=1.00:0.15 / mixed_ref=1 / me_range=32 / chroma_me=1 / trellis=2 / 8x8dct=1 / cqm=0 / deadzone=21,11 / fast_pskip=1 / chroma_qp_offset=-3 / threads=6 / lookahead_threads=1 / sliced_threads=0 / nr=0 / decimate=1 / interlaced=0 / bluray_compat=0 / constrained_intra=0 / bframes=8 / b_pyramid=2 / b_adapt=2 / b_bias=0 / direct=3 / weightb=1 / open_gop=0 / weightp=2 / keyint=230 / keyint_min=23 / scenecut=40 / intra_refresh=0 / rc_lookahead=40 / rc=crf / mbtree=0 / crf=19.5 / qcomp=0.60 / qpmin=0 / qpmax=69 / qpstep=4 / vbv_maxrate=50000 / vbv_bufsize=62500 / crf_max=0.0 / nal_hrd=none / filler=0 / ip_ratio=1.40 / pb_ratio=1.30 / aq=1:1.00Язык : EnglishDefault : ДаForced : Нет_STATISTICS_WRITING_APP : mkvmerge v7.3.0 ('Nouages') 64bit built on Oct 22 2014 18:53:34_STATISTICS_WRITING_DATE_UTC : 2014-10-31 13:17:24_STATISTICS_TAGS : BPS DURATION NUMBER_OF_FRAMES NUMBER_OF_BYTESDURATION : 01:44:54.831000000NUMBER_OF_FRAMES : 150925NUMBER_OF_BYTES : 5216780753

Аудио #1Идентификатор : 2Формат : AC-3Формат/Информация : Audio Coding 3Расширение режима : CM (complete main)Параметр Endianness формата : BigИдентификатор кодека : A_AC3Продолжительность : 1 ч. 44 м.Вид битрейта : ПостоянныйБитрейт : 448 Кбит/секКаналы : 6 каналовРасположение каналов : Front: L C R, Side: L R, LFEЧастота : 48,0 КГцБитовая глубина : 16 битМетод сжатия : С потерямиРазмер потока : 336 Мбайт (6%)Заголовок : MVOЯзык : RussianDefault : ДаForced : Нет

Аудио #2Идентификатор : 3Формат : AC-3Формат/Информация : Audio Coding 3Расширение режима : CM (complete main)Параметр Endianness формата : BigИдентификатор кодека : A_AC3Продолжительность : 1 ч. 44 м.Вид битрейта : ПостоянныйБитрейт : 448 Кбит/секКаналы : 6 каналовРасположение каналов : Front: L C R, Side: L R, LFEЧастота : 48,0 КГцБитовая глубина : 16 битМетод сжатия : С потерямиРазмер потока : 336 Мбайт (6%)Заголовок : OriginalЯзык : EnglishDefault : НетForced : Нет

ТекстИдентификатор : 4Формат : UTF-8Идентификатор кодека : S_TEXT/UTF8Идентификатор кодека/Информация : UTF-8 Plain TextЗаголовок : английскийЯзык : EnglishDefault : НетForced : Нет

piratbit.ru

Звездный десант - Трилогия / Starship Troopers - Trilogy[1997

Звездный десант / Starship Troopers (1997) BDRip 720p от NOLIMITS-TEAM 

Название:

Звездный десант Оригинальное название: Starship Troopers Год выхода: 1997 Жанр: Фантастика, боевик, триллер, приключения Режиссер: Пол Верховен В ролях: Каспер Ван Дин, Дина Мейер, Дэнис Ричардс, Джейк Бьюзи, Нил Патрик Харрис, Клэнси Браун, Сет Гиллиам, Патрик Малдун, Майкл Айронсайд, Ру МакКлэнахан

Сюжет фильма: В новом тысячелетии над человечеством нависла смертельная опасность. Несметные полчища гигантских разумных жуков с далекой системы планет Клендату угрожают всему живому во вселенной. Солдат элитного подразделения Джонни Рико и пилот Кармен в составе звездного десанта Землян на космическом военном корабле Тикондерога отправляются в зловещие глубины космоса, чтобы в последней решающей схватке решить судьбу Земли. В их руках — современнейшее оружие и будущее людской расы.  

Продолжительность: 02:09:37 Перевод: Профессиональный (многоголосый, закадровый) Выпущено: | США

Качество: BDRip (720p) Видео: 1280x692, 2298 Кбит/сек, 23,976 кадр/сек, AVC, x264, 1.850, 0.105 Бит/(Пиксели*Кадры) Аудио: AC-3, 192 Кбит/сек, 2 канала(ов), 48,0 КГц Размер: 2,23 ГБ

 

 

Звездный десант 2: Герой федерации / Starship Troopers 2: Hero of the Federation (2004) BDRip 720p от NOLIMITS-TEAM

 

Название: Звездный десант 2: Герой федерации Оригинальное название: Starship Troopers 2: Hero of the Federation Год выхода: 2004 Жанр: Фантастика, боевик, триллер, приключения Режиссер: Фил Типпетт В ролях: Билли Браун, Ричард Берджи, Келли Карлсон, Сай Картер, Сандрин Холт, Эд Лотер, Жан-Поль Ману, Лоуренс Моносон, Коллин Порш, Дрю Пауэлл

Сюжет фильма: Войска Земной Федерации переходят в контрнаступление и успешно уничтожают колонии злобных инсектойдов. Но твари не cдаются - они разработали мощное биологическое оружие, способное уничтожить землян…  

Продолжительность: 01:31:36 Перевод: Профессиональный (многоголосый, закадровый) Выпущено: | США

Качество: BDRip (720p) Видео: 1280x720, 3060 Кбит/сек, 23,976 кадр/сек, AVC, x264, 16:9, 0.131 Бит/(Пиксели*Кадры) Аудио: AC-3, 448 Кбит/сек, 6 канала(ов), 48,0 КГц Размер: 2,18 ГБ

 

 

Звездный десант 3: Мародер / Starship Troopers 3: Marauder (2008) BDRip 720p от NOLIMITS-TEAM

 

Название: Звездный десант 3: Мародер Оригинальное название: Starship Troopers 3: Marauder Год выхода: 2008 Жанр: Фантастика, боевик, триллер, приключения Режиссер: Эдвард Ноймайер В ролях: Каспер Ван Дин /Casper Van Dien/, Джолин Блэлок /Jolene Blalock/, Энтони Бишоп /Anthony Bishop/, Гарт Брейтенбач /Garth Breytenbach/, Аманда Донохью /Amanda Donohoe/, Мэджик Дж. Эллингсон /Magic J. Ellingson/

Сюжет фильма: Война против жуков продолжается. Звездолёт Федерации терпит крушение на далёкой планете OM-1, переплетая судьбы влюблённого командира, маршала космических войск Энока, жесткого пилота Лолу Бек и других членов экипажа. Крушение заставляет генерала-полковника Джонни Рико, героя сражений времен первого вторжения жуков, повести группу десантников на отважную спасательную миссию...

Продолжительность: 01:44:54 Перевод: Профессиональный (многоголосый закадровый) Выпущено: | США

Качество: BDRip (720p) Видео: 1280x720, 2401 Кбит/сек, 23,976 кадр/сек, AVC, x264, 16:9, 0.103 Бит/(Пиксели*Кадры) Аудио: AC-3, 640 Кбит/сек, 6 канала(ов), 48,0 КГц Размер: 2,18 ГБ

 

 

torrent-games.net

Предатель Марса через торрент в хорошем качестве бесплатно 1080p

ОбщееУникальный идентификатор : 173940831389696793538237711540608543700 (0x82DBC91B47904C3782FCD96766C3ABD4)Полное имя : D:\Zvozdnyy.desant.Predatel.Mars.2017.P.WEBDL.1080p.mkvФормат : MatroskaВерсия формата : Version 4 / Version 2Размер файла : 3,57 ГбайтПродолжительность : 1 ч. 27 м.Общий поток : 5813 Кбит/секДата кодирования : UTC 2017-08-23 11:34:56Программа кодирования : mkvmerge v6.8.0 ('Theme for Great Cities') 32bit built on Mar 2 2014 21:27:07Библиотека кодирования : libebml v1.3.0 + libmatroska v1.4.1

ВидеоИдентификатор : 1Формат : AVCФормат/Информация : Advanced Video CodecПрофиль формата : [email protected]Параметр CABAC формата : ДаПараметр ReFrames формата : 4 кадраИдентификатор кодека : V_MPEG4/ISO/AVCПродолжительность : 1 ч. 27 м.Битрейт : 5121 Кбит/секШирина : 1920 пикселейВысота : 1080 пикселейСоотношение сторон : 16:9Режим частоты кадров : ПостоянныйЧастота кадров : 24,000 кадра/секЦветовое пространство : YUVСубдискретизация насыщенности : 4:2:0Битовая глубина : 8 битТип развёртки : ПрогрессивнаяБит/(Пиксели*Кадры) : 0.103Размер потока : 3,14 Гбайт (88%)Язык : EnglishDefault : ДаForced : НетЦветовой диапазон : LimitedОсновные цвета : BT.709Характеристики трансфера : BT.709Коэффициенты матрицы : BT.709

Аудио #1Идентификатор : 2Формат : AC-3Формат/Информация : Audio Coding 3Расширение режима : CM (complete main)Параметр Endianness формата : BigИдентификатор кодека : A_AC3Продолжительность : 1 ч. 27 м.Вид битрейта : ПостоянныйБитрейт : 192 Кбит/секКаналы : 2 каналаРасположение каналов : Front: L RЧастота : 48,0 КГцЧастота кадров : 31,250 кадров/сек (1536 spf)Метод сжатия : С потерямиРазмер потока : 121 Мбайт (3%)Язык : RussianDefault : НетForced : Да

Аудио #2Идентификатор : 3Формат : AC-3Формат/Информация : Audio Coding 3Расширение режима : CM (complete main)Параметр Endianness формата : BigИдентификатор кодека : A_AC3Продолжительность : 1 ч. 27 м.Вид битрейта : ПостоянныйБитрейт : 384 Кбит/секКаналы : 6 каналовРасположение каналов : Front: L C R, Side: L R, LFEЧастота : 48,0 КГцЧастота кадров : 31,250 кадров/сек (1536 spf)Метод сжатия : С потерямиРазмер потока : 241 Мбайт (7%)Язык : EnglishDefault : НетForced : Нет

piratbit.ru

Герой федерации (2004) смотреть онлайн или скачать фильм через торрент. Трейлеры, правдивые оценки, рецензии, комментарии, похожие фильмы, саундтрек, новости и интересные факты на Fast-torrent

Мал, да удал.

Фильм Пола Верховена в своё время произвёл эффект ядерной бомбы, пусть это сказалось и не на величине сборов, но о нём говорил каждый кто его посмотрел. Снятый, по мотивам (именно по мотивам, так как от первоисточника здесь очень немного) романа Хайнлайна он имел в запасе превосходные спецэффекты, звёзд Голливуда, жестокие и кровавые сцены (впрочем, это же Верховен), хорошую игру актёров - успех был гарантирован. И на волне успеха первого фильма, любители решили сделать свой Звёздный десант с арахнидами и расчленёнкой. Получилось...на удивление неплохо.

Конечно, здесь вы не увидите кого-нибудь известного, в основном это завсегдатаи сериалов и исполнители небольших ролей, поэтому актёрская игра не блещет. Они, естественно, стараются, но видно, что скилл не тянет. Смотреть можно, видали и похуже, но герои безлики, ни один не запоминается, а характеры не то что не прописаны, они стандарты и отыгрываются по лекалам: зелёный новичок, неопытный офицер, бой-баба, дуболомный вояка и так далее.Когда же фильм срывается с цепи и начинает просто кромсать наших протеже одного за другим в капусту, не ощущается ничего, кроме скуки. Но пожалуй Дэкс немного вытягивает этот цирк. Он типичный badass-вояка, много в жизни повидавший: и зануду на место поставит, и новичку объяснит для чего эта штука и как работает, и с генералом задушевные разговоры мастак вести.

Сюжетом в духе ''горстка чуваков сражается не за себя, но за всё человечество'' никого уже не удивишь, десятки, если не сотни, фильмов тому подтверждение: Факультет, От заката до рассвета, Нечто и прочие, поэтому что-то говорить тут - лишнее. Также здешняя Федерация показана ещё большей засранкой, чем в первом фильме: даже младенцев она уже заочно записывает в вооружённые войска, чтобы тот с гордостью отдал жизнь, ну или хотя бы часть своего тела (руку, там, или ногу, подумаешь какая мелочь)во славу Империи и Лорда Нашего Вейдера Родины. Ведь это так круто и почётно! И ,как ни странно, тут мой список претензий заканчивается, потому что это одно из тех произведений, в котором за действие интересней наблюдать, чем за всем остальным.

Первая претензия которая предъявляется к фильму всеми без исключения: графическая составляющая, а в особенности - оружие людей, представленное как игрушечные автоматики со вспышками. Если уж ЭТО люди видят как проблему, то я даже не знаю какой тут диагноз выносить пациенту, потому что придираться к графону в малобюджетном (!) фильме - дело, как бы это сказать, в высшей степени бессмысленное. Ну сверкают автоматики как гирлянда, ну и хрен с ними, не всё же в этом мире должно бахать и взрываться так, чтоб сабвуфер от натуги разрывался, а от эффектов выстрелов начинался припадок у эпилептиков. Стараясь же скрыть недостаток бюджета, фильм происходит,в основном, внутри помещений, но всё же иногда умудряется выдавать неплохие сцены на открытом воздухе: схватка в песчаной буре в начале, бомбёжка жуков, орда этих самых жуков в конце. Смотрится более чем достойно. В довесок к этому хотелось бы отметить высокий уровень операторский работы, все эти панорамные снимки, чёткая фокусировка на происходящем, облёты камеры, а уж как снята финальная сцена боя на последнем участке земли посреди полчища тварей и её трагичное, но ожидаемое завершение - тут я аплодировал стоя.

Второй главный плюс - музыка. Вписана она очень грамотно, сами темы также хорошо сочинены и передают всю полноту ощущений. Тем из первого фильма мы тут не услышим, но и здешняя музыка отлична.

В общем и целом что мы имеем: вышедший сразу на DVD и вымирающих, на тот момент, VHS, Звёздный Десант 2: Герой Федерации оказался крепким молодцом, пусть и хромым и порядком одряхлевшим, но тем не менее показавшим что и у малобюджетных фильмов есть что противопоставить многомиллионным мастодонтам.

Крепкая 8\10.

www.fast-torrent.ru


Смотрите также