Марсианин 1080 скачать торрент


Скачать торрент Марсианин / The Martian (2015) BDRip 1080p

Информация о фильмеНазвание: МарсианинОригинальное название: The MartianГод выхода: 2015Жанр: фантастика, приключенияРежиссер: Ридли СкоттВ ролях: Мэтт Дэймон, Джессика Честейн, Чиветель Эджиофор, Кристен Уиг, Джефф Дэниелс, Майкл Пенья, Шон Бин, Кейт Мара, Себастьян Стэн, Аксель Хенни

О фильме: Марсианская миссия «Арес-3» в процессе работы была вынуждена экстренно покинуть планету из-за надвигающейся песчаной бури. Инженер и биолог Марк Уотни получил повреждение скафандра во время песчаной бури. Сотрудники миссии, посчитав его погибшим, эвакуировались с планеты, оставив Марка одного. Очнувшись, Уотни обнаруживает, что связь с Землёй отсутствует, но при этом полностью функционирует жилой модуль. Главный герой начинает искать способ продержаться на имеющихся запасах еды, витаминов, воды и воздуха ещё 4 года до прилёта следующей миссии «Арес-4».

Выпущено: Twentieth Century Fox Film CorporationПродолжительность: 02:21:38Перевод: Дублированный (лицензия)

ФайлКодек: x264Качество: BDRip \(источник: Blu-ray Disc\)Видео: 1920x800 (2,40:1), 23.976 fps, 6950 kbpsАудио #1: AC-3, 6 ch, 448 kbps (Rus)Аудио #2: AC-3, 6 ch, 448 kbps (Eng)Субтитры: Русские (форс,полные), АнглийскиеСкачать: сэмпл

Скриншоты

MI

Общее Уникальный идентификатор : 246641217090324594504505620421718207856 (0xB98D5EDC757EF9E6A857250BEBD26D70) Полное имя : The.Martian.2015.BDRip.1080p.Rus.Eng.mkv Формат : Matroska Версия формата : Version 2 Размер файла : 7,76 Гбайт Продолжительность : 2 ч. 21 м. Общий поток : 7847 Кбит/сек Название фильма : Марсианин / The Martian (2015) Дата кодирования : UTC 2016-01-10 11:14:58 Программа кодирования : mkvmerge v5.8.0 ('No Sleep / Pillow') built on Sep 2 2012 15:37:04 Библиотека кодирования : libebml v1.2.3 + libmatroska v1.3.0

Видео Идентификатор : 1 Формат : AVC Формат/Информация : Advanced Video Codec Профиль формата : [email protected] Параметр CABAC формата : Да Параметр ReFrames формата : 5 кадров Идентификатор кодека : V_MPEG4/ISO/AVC Продолжительность : 2 ч. 21 м. Битрейт : 6950 Кбит/сек Ширина : 1920 пикселей Высота : 800 пикселей Соотношение сторон : 2,40:1 Режим частоты кадров : Постоянный Частота кадров : 23,976 кадра/сек Цветовое пространство : YUV Субдискретизация насыщенности : 4:2:0 Битовая глубина : 8 бит Тип развёртки : Прогрессивная Бит/(Пиксели*Кадры) : 0.189 Размер потока : 6,72 Гбайт (87%) Заголовок : Release by AlexKa Библиотека кодирования : x264 core 148 r2638 7599210 Настройки программы : cabac=1 / ref=5 / deblock=1:-3:-3 / analyse=0x3:0x133 / me=umh / subme=11 / psy=1 / psy_rd=1.00:0.00 / mixed_ref=1 / me_range=32 / chroma_me=1 / trellis=2 / 8x8dct=1 / cqm=0 / deadzone=21,11 / fast_pskip=0 / chroma_qp_offset=-2 / threads=12 / lookahead_threads=2 / sliced_threads=0 / nr=0 / decimate=0 / interlaced=0 / bluray_compat=0 / constrained_intra=0 / bframes=8 / b_pyramid=2 / b_adapt=2 / b_bias=0 / direct=3 / weightb=1 / open_gop=0 / weightp=2 / keyint=240 / keyint_min=23 / scenecut=40 / intra_refresh=0 / rc=2pass / mbtree=0 / bitrate=6950 / ratetol=1.0 / qcomp=0.60 / qpmin=0 / qpmax=69 / qpstep=4 / cplxblur=20.0 / qblur=0.5 / ip_ratio=1.40 / pb_ratio=1.30 / aq=1:1.00 Язык : English

Аудио #1 Идентификатор : 2 Формат : AC-3 Формат/Информация : Audio Coding 3 Расширение режима : CM (complete main) Параметр Endianness формата : Big Идентификатор кодека : A_AC3 Продолжительность : 2 ч. 21 м. Вид битрейта : Постоянный Битрейт : 448 Кбит/сек Каналы : 6 каналов Расположение каналов : Front: L C R, Side: L R, LFE Частота : 48,0 КГц Метод сжатия : С потерями Размер потока : 454 Мбайт (6%) Заголовок : Rus Язык : Russian

Аудио #2 Идентификатор : 3 Формат : AC-3 Формат/Информация : Audio Coding 3 Расширение режима : CM (complete main) Параметр Endianness формата : Big Идентификатор кодека : A_AC3 Продолжительность : 2 ч. 21 м. Вид битрейта : Постоянный Битрейт : 448 Кбит/сек Каналы : 6 каналов Расположение каналов : Front: L C R, Side: L R, LFE Частота : 48,0 КГц Метод сжатия : С потерями Размер потока : 454 Мбайт (6%) Заголовок : Eng Язык : English

Текст #1 Идентификатор : 4 Формат : UTF-8 Идентификатор кодека : S_TEXT/UTF8 Идентификатор кодека/Информация : UTF-8 Plain Text Заголовок : Rus forced Язык : Russian

Текст #2 Идентификатор : 5 Формат : UTF-8 Идентификатор кодека : S_TEXT/UTF8 Идентификатор кодека/Информация : UTF-8 Plain Text Заголовок : Rus Язык : Russian

Текст #3 Идентификатор : 6 Формат : UTF-8 Идентификатор кодека : S_TEXT/UTF8 Идентификатор кодека/Информация : UTF-8 Plain Text Заголовок : Eng Язык : English

Меню 00:00:00.000 : :Chapter 01 00:03:22.284 : :Chapter 02 00:10:08.982 : :Chapter 03 00:15:24.590 : :Chapter 04 00:18:25.186 : :Chapter 05 00:21:34.375 : :Chapter 06 00:24:28.090 : :Chapter 07 00:28:52.689 : :Chapter 08 00:31:36.644 : :Chapter 09 00:34:21.099 : :Chapter 10 00:39:13.434 : :Chapter 11 00:41:21.768 : :Chapter 12 00:46:23.529 : :Chapter 13 00:49:25.085 : :Chapter 14 00:56:15.746 : :Chapter 15 00:59:40.492 : :Chapter 16 01:02:23.822 : :Chapter 17 01:06:53.134 : :Chapter 18 01:09:52.979 : :Chapter 19 01:13:51.301 : :Chapter 20 01:18:38.255 : :Chapter 21 01:22:52.466 : :Chapter 22 01:30:41.269 : :Chapter 23 01:37:30.094 : :Chapter 24 01:43:31.997 : :Chapter 25 01:46:16.286 : :Chapter 26 01:50:18.737 : :Chapter 27 01:54:07.966 : :Chapter 28 01:57:49.311 : :Chapter 29 02:04:41.681 : :Chapter 30 02:11:05.731 : :Chapter 31 02:13:28.792 : :Chapter 32 02:21:37.322 : :Chapter 33

x264

x264 [info]: frame I:1937 Avg QP:14.83 size:247693 x264 [info]: frame P:46660 Avg QP:17.87 size: 75557 x264 [info]: frame B:155141 Avg QP:19.63 size: 21756 x264 [info]: consecutive B-frames: 2.9% 3.2% 7.0% 22.6% 25.6% 32.1% 4.4% 1.2% 1.0%Jack_5 25-Фев-2016 11:20 (1 год 8 месяцев назад) Оценил на: 10 Нормальны фильмец, чё. И качество норм. Proffy66 12-Фев-2016 22:10 (1 год 8 месяцев назад) Оценил на: 10  Johnny Sins 05-Фев-2016 16:45 (1 год 8 месяцев назад) Оценил на: 10  topic 28-Янв-2016 00:50 (1 год 8 месяцев назад) Оценил на: 1 не буду углубляться..., но янки по качеству картинки и постановке,первые не только на планете нашей , но они и на луну второй раз . скоро слетают не отрываясь от земли.. и опять об - этом кино снимут. и все поверят.турбо, молодцы danjik 26-Янв-2016 23:05 (1 год 8 месяцев назад) Оценил на: 10 Для особо негативных критиков, типа такого не может быть и все такое, ребя это научная фантастика то есть фантазия, и все научные работы в фильме ВЫДУМАНЫ. hedsher 23-Янв-2016 12:10 (1 год 9 месяцев назад) Оценил на: 10 Очень хочется от Вас "Танцующий с волками" в размере 11,5 и хорошим звуком... Makoto 20-Янв-2016 18:40 (1 год 9 месяцев назад) Оценил на: 10 Спасибо за отличный рип. Фильм понравился. Lite_an 14-Янв-2016 20:00 (1 год 9 месяцев назад) Оценил на: 10 Классный фильм, стиль напомнил Аполлон 13 i777 12-Янв-2016 04:10 (1 год 9 месяцев назад) Оценил на: 10  какойнибутьник 11-Янв-2016 16:25 (1 год 9 месяцев назад) Оценил на: 10  Чарующий_тапок 11-Янв-2016 10:05 (1 год 9 месяцев назад) Оценил на: 10 Сегодня, фильм "Марсианин" получил приз "Золотой глобус" как лучшая комедия года. prorector2011 10-Янв-2016 22:55 (1 год 9 месяцев назад) Оценил на: 5 Если честно, ожидал большего. Так себе фильмец. Оценка фильму. А рип хороший. ptizelow 10-Янв-2016 21:05 (1 год 9 месяцев назад) Оценил на: 10 Классный фильм, а рип ещё лучше!!! AlexKa огромнейшее  VaDeP 10-Янв-2016 19:10 (1 год 9 месяцев назад) Оценил на: 10  Ягорь 10-Янв-2016 18:55 (1 год 9 месяцев назад) Оценил на: 5 Что то все зациклились на этом марсианине.Мне нравятся зрелищные фильмы,но здесь,никак не сравнить ни с Риддиком,ни с Аватаром,ни с Санктумом,даже,кажется,с Гравитацией и то не сравнить.Фильм 5 и не более.Любой другой фильм,выйди он в таком качестве и в переводе - тоже засмотришся! boriy 10-Янв-2016 18:25 (1 год 9 месяцев назад) Оценил на: 10  Max77 10-Янв-2016 18:25 (1 год 9 месяцев назад) Оценил на: 10  petand 10-Янв-2016 18:25 (1 год 9 месяцев назад) Оценил на: 10 Спасибо! mister.hats 10-Янв-2016 18:10 (1 год 9 месяцев назад) Оценил на: 10  p..a..r..a..d..o..x 10-Янв-2016 18:00 (1 год 9 месяцев назад) Оценил на: 10 Спасибо! kolyanet2008 10-Янв-2016 17:06 (1 год 9 месяцев назад) AlexKaпонял,спасибо за ответ и этот рип, забираю этот.  MrRavage 10-Янв-2016 16:50 (1 год 9 месяцев назад) seregaanarhist, какая версия клиента? Поддержка UDP-трекеров только в 2.0 и выше. kolyanet2008 10-Янв-2016 16:50 (1 год 9 месяцев назад) Стоит ждать рип на 720 от Вас? seregaanarhist 10-Янв-2016 16:35 (1 год 9 месяцев назад) Понятно. to7op 10-Янв-2016 16:35 (1 год 9 месяцев назад) Перевод, конечно, совершенно отвратительный, некоторые фразы совсем опущены, другие переведены с абсолютно иным смыслом. Если соберетесь посмотреть, смотрите в оригинале либо дождитесь нормальной озвучки (или субтитров хотя бы). jokеr 10-Янв-2016 16:35 (1 год 9 месяцев назад) Woodworker что влезет? вон у некоторых в 800 мб влазит) смотрел ремукс на метровой диагонали и то глаз не радует, хотя многим тут и экранки за радость... Woodworker 10-Янв-2016 16:15 (1 год 9 месяцев назад) Оценил на: 10 Не думал, что на 7.76 влезет. Фильм неплохой. wolter-melon 10-Янв-2016 16:05 (1 год 9 месяцев назад) Wonderio619, не думаю что будут новые таблетки, в Steam было уже несколько распродаж по -40% скидка. Все кто хотел ее уже купили. SeventhSon8827 10-Янв-2016 16:00 (1 год 9 месяцев назад) Оценил на: 10  Quentin_MiX 10-Янв-2016 15:55 (1 год 9 месяцев назад) Оценил на: 10  pheromone 10-Янв-2016 15:55 (1 год 9 месяцев назад) Оценил на: 10 Спасибо большое, ждал ваш релиз 

Файлы для обмена предоставлены пользователями сайта. Администрация не несёт ответственности за их содержание. На сервере хранятся только торрент-файлы. Это значит, что мы не храним никаких нелегальных материалов, а так же материалов охраняемых авторским правом.

krutor.org

Скачать торрент Марсианин / The Martian (2015) BDRip 1080p от NNNB

Марсианин / The Martian«Верните его домой»Русское название: МарсианинОригинальное название: The MartianГод выпуска: 2015Жанр: фантастика, приключенияВыпущено: США, ВеликобританияРежиссер: Ридли Скотт В ролях: Мэтт Дэймон , Джессика Честейн , Чиветель Эджиофор , Кристен Уиг , Джефф Дэниелс , Майкл Пенья , Шон Бин , Кейт Мара , Себастьян Стэн , Аксель Хенни , Бенедикт Вонг , Маккензи Дэвис Перевод: Дублированный - [Лицензия], Авторский одноголосыйСюжет фильма: Марсианская миссия «Арес-3» в процессе работы была вынуждена экстренно покинуть планету из-за надвигающейся песчаной бури. Инженер и биолог Марк Уотни получил повреждение скафандра во время песчаной бури. Сотрудники миссии, посчитав его погибшим, эвакуировались с планеты, оставив Марка одного. Очнувшись, Уотни обнаруживает, что связь с Землёй отсутствует, но при этом полностью функционирует жилой модуль. Главный герой начинает искать способ продержаться на имеющихся запасах еды, витаминов, воды и воздуха ещё 4 года до прилёта следующей миссии «Арес-4».

Качество: BDRip 1080pФормат: AVC \(библиотека кодирования x.264\)Контейнер (Расширение): MKVВидео: 1920x800, 9465 Кбит/сек, 23,976 кадр/сек, 0,257 Бит/[Пиксели*Кадры]Аудио №1: русский / AC3 / 5.1 / 48 kHz / 448 kbps / 16 bit |DUB, Blu-Ray CEE| Аудио №2: русский / AC3 / 5.1 / 48 kHz / 640 kbps / 16 bit |AVO, Д.Есарев| Аудио №3: русский / AC3 / 5.1 / 48 kHz / 448 kbps / 16 bit |AVO, Ю.Живов| Аудио №4: английский / AC3 / 5.1 / 48 kHz / 640 kbps /Субтитры: русские (Forced), русские (Full), английские (Forced), английские (Full), английские (SDH), английские (SDH-Colored)Навигация по главам(Чаптеры): естьПродолжительность: 02:21:37

Автор рипа: Сообщество:

MediaInfo

Format : Matroska Format version : Version 2 File size : 11.5 GiB Duration : 2h 21mn Overall bit rate : 11.6 Mbps Movie name : The Martian.(2015).BDRip.1080p.[denis100] Encoded date : UTC 2016-02-08 16:05:08 Writing application : mkvmerge v5.8.0 ('No Sleep / Pillow') built on Sep 2 2012 15:37:04 Writing library : libebml v1.2.3 + libmatroska v1.3.0

Video ID : 1 Format : AVC Format/Info : Advanced Video Codec Format profile : [email protected] Format settings, CABAC : Yes Format settings, ReFrames : 5 frames Codec ID : V_MPEG4/ISO/AVC Duration : 2h 21mn Bit rate : 9 465 Kbps Width : 1 920 pixels Height : 800 pixels Display aspect ratio : 2.40:1 Frame rate : 23.976 fps Color space : YUV Chroma subsampling : 4:2:0 Bit depth : 8 bits Scan type : Progressive Bits/(Pixel*Frame) : 0.257 Stream size : 9.13 GiB (79%) Title : The Martian.(2015).BDRip.1080p.[denis100] Writing library : x264 core 148 r2638 7599210 Encoding settings : cabac=1 / ref=5 / deblock=1:-3:-3 / analyse=0x3:0x133 / me=umh / subme=11 / psy=1 / psy_rd=1.00:0.00 / mixed_ref=1 / me_range=32 / chroma_me=1 / trellis=2 / 8x8dct=1 / cqm=0 / deadzone=21,11 / fast_pskip=0 / chroma_qp_offset=-2 / threads=6 / lookahead_threads=1 / sliced_threads=0 / nr=0 / decimate=1 / interlaced=0 / bluray_compat=0 / constrained_intra=0 / bframes=10 / b_pyramid=2 / b_adapt=2 / b_bias=0 / direct=3 / weightb=1 / open_gop=0 / weightp=2 / keyint=240 / keyint_min=23 / scenecut=40 / intra_refresh=0 / rc=2pass / mbtree=0 / bitrate=9465 / ratetol=1.0 / qcomp=0.60 / qpmin=0 / qpmax=69 / qpstep=4 / cplxblur=20.0 / qblur=0.5 / ip_ratio=1.40 / pb_ratio=1.30 / aq=1:1.00 Language : English Default : Yes Forced : No

Audio #1 ID : 2 Format : AC-3 Format/Info : Audio Coding 3 Mode extension : CM (complete main) Codec ID : A_AC3 Duration : 2h 21mn Bit rate mode : Constant Bit rate : 448 Kbps Channel(s) : 6 channels Channel positions : Front: L C R, Side: L R, LFE Sampling rate : 48.0 KHz Bit depth : 16 bits Compression mode : Lossy Stream size : 454 MiB (4%) Title : DUB, BD CEE Language : Russian Default : Yes Forced : No

Audio #2 ID : 3 Format : AC-3 Format/Info : Audio Coding 3 Mode extension : CM (complete main) Codec ID : A_AC3 Duration : 2h 21mn Bit rate mode : Constant Bit rate : 640 Kbps Channel(s) : 6 channels Channel positions : Front: L C R, Side: L R, LFE Sampling rate : 48.0 KHz Bit depth : 16 bits Compression mode : Lossy Stream size : 648 MiB (5%) Title : AVO, Д.Есарев Language : Russian Default : No Forced : No

Audio #3 ID : 4 Format : AC-3 Format/Info : Audio Coding 3 Mode extension : CM (complete main) Codec ID : A_AC3 Duration : 2h 21mn Bit rate mode : Constant Bit rate : 448 Kbps Channel(s) : 6 channels Channel positions : Front: L C R, Side: L R, LFE Sampling rate : 48.0 KHz Bit depth : 16 bits Compression mode : Lossy Stream size : 454 MiB (4%) Title : AVO, Ю.Живов Language : Russian Default : No Forced : No

Audio #4 ID : 5 Format : AC-3 Format/Info : Audio Coding 3 Mode extension : CM (complete main) Codec ID : A_AC3 Duration : 2h 21mn Bit rate mode : Constant Bit rate : 640 Kbps Channel(s) : 6 channels Channel positions : Front: L C R, Side: L R, LFE Sampling rate : 48.0 KHz Bit depth : 16 bits Compression mode : Lossy Stream size : 648 MiB (5%) Language : English Default : No Forced : No

Text #1 ID : 6 Format : UTF-8 Codec ID : S_TEXT/UTF8 Codec ID/Info : UTF-8 Plain Text Title : Forced Language : Russian Default : Yes Forced : No

Text #2 ID : 7 Format : UTF-8 Codec ID : S_TEXT/UTF8 Codec ID/Info : UTF-8 Plain Text Title : Full Language : Russian Default : No Forced : No

Text #3 ID : 8 Format : UTF-8 Codec ID : S_TEXT/UTF8 Codec ID/Info : UTF-8 Plain Text Title : Forced Language : English Default : No Forced : No

Text #4 ID : 9 Format : UTF-8 Codec ID : S_TEXT/UTF8 Codec ID/Info : UTF-8 Plain Text Title : Full Language : English Default : No Forced : No

Text #5 ID : 10 Format : UTF-8 Codec ID : S_TEXT/UTF8 Codec ID/Info : UTF-8 Plain Text Title : SDH Language : English Default : No Forced : No

Text #6 ID : 11 Format : UTF-8 Codec ID : S_TEXT/UTF8 Codec ID/Info : UTF-8 Plain Text Title : SDH-Colored Language : English Default : No Forced : No

Menu 00:00:00.000 : en:00:00:00.000 00:03:22.285 : en:00:03:22.285 00:10:08.983 : en:00:10:08.983 00:15:24.590 : en:00:15:24.590 00:18:25.187 : en:00:18:25.187 00:21:34.376 : en:00:21:34.376 00:24:28.091 : en:00:24:28.091 00:28:52.689 : en:00:28:52.689 00:31:36.644 : en:00:31:36.644 00:34:21.100 : en:00:34:21.100 00:39:13.434 : en:00:39:13.434 00:41:21.770 : en:00:41:21.770 00:46:23.530 : en:00:46:23.530 00:49:25.087 : en:00:49:25.087 00:56:15.747 : en:00:56:15.747 00:59:40.493 : en:00:59:40.493 01:02:23.823 : en:01:02:23.823 01:06:53.134 : en:01:06:53.134 01:09:52.980 : en:01:09:52.980 01:13:51.301 : en:01:13:51.301 01:18:38.255 : en:01:18:38.255 01:22:52.467 : en:01:22:52.467 01:30:41.269 : en:01:30:41.269 01:37:30.094 : en:01:37:30.094 01:43:31.997 : en:01:43:31.997 01:46:16.286 : en:01:46:16.286 01:50:18.737 : en:01:50:18.737 01:54:07.966 : en:01:54:07.966 01:57:49.312 : en:01:57:49.312 02:04:41.682 : en:02:04:41.682 02:11:05.732 : en:02:11:05.732 02:13:28.792 : en:02:13:28.792

x264

x264 [info]: frame I:1793 Avg QP:13.67 size:286173 x264 [info]: frame P:54157 Avg QP:16.22 size: 89792 x264 [info]: frame B:147788 Avg QP:18.03 size: 31628 x264 [info]: consecutive B-frames: 5.9% 5.1% 9.9% 23.1% 22.7% 27.5% 3.7% 0.9% 0.4% 0.3% 0.4%

mrutor.org

Скачать торрент Марсианин / The Martian (2015) BDRip 1080p от ExKinoRay | Расширенная версия

Информация о фильмеНазвание: МарсианинОригинальное название: The MartianГод выхода: 2015Жанр: Фантастика, приключенияРежиссер: Ридли СкоттВ ролях: Мэтт Дэймон, Джессика Честейн, Чиветел Эджиофор, Кристен Уиг, Джефф Дэниелс, Майкл Пенья, Шон Бин, Кейт Мара, Себастьян Стэн, Аксель Хенни, Бенедикт Вонг, Маккензи Дэвис, Дональд Гловер, Ник Мохаммед, Чен Шу, Эдди Ко, Энцо Чиленти, Джонатан Арис, Граффадд Глин, Наоми Скотт

О фильме: Марсианская миссия «Арес-3» в процессе работы была вынуждена экстренно покинуть планету из-за надвигающейся песчаной бури. Инженер и биолог Марк Уотни получил повреждение скафандра во время песчаной бури. Сотрудники миссии, посчитав его погибшим, эвакуировались с планеты, оставив Марка одного. Очнувшись, Уотни обнаруживает, что связь с Землёй отсутствует, но при этом полностью функционирует жилой модуль. Главный герой начинает искать способ продержаться на имеющихся запасах еды, витаминов, воды и воздуха ещё 4 года до прилёта следующей миссии «Арес-4».

Страна: СШАСтудия: 20th Century Fox Film Corporation, Genre FilmsПродолжительность: 02:31:20Перевод: Дублированный

ФайлКодек: MPEG-4Качество: BDRip 1080pВидео: 1920x800, 10,2 Мbit/s, 23.976 fpsЗвук: Аудио #01: 48 kHz, DTS, 5.1, 768 Kbps | Дублированный |DTS Аудио #01: 48 kHz, AC3, 5.1, 448 Kbps | Дублированный |AC3 Аудио #02: 48 kHz, DTS, 5.1, 1510 kbps | Оригинал |DTS Субтитры: Английские

Релиз от: Автор релиза:

Примечание

Расширенные сцены озвучены студией "Omskbird records"

MI

General Unique ID : 201647200937425069917389408769238942415 (0x97B3D69777EEB9C899902B576E3CC2CF) Complete name : F:VideoThe.Martian.2015.EXTENDED.BDRip.1080p.ExKinoRay.mkv Format : Matroska Format version : Version 4 / Version 2 File size : 13.7 GiB Duration : 2h 31mn Overall bit rate : 12.9 Mbps Movie name : The.Martian.2015.EXTENDED.BDRip.1080p.ExKinoRay Encoded date : UTC 2016-06-18 00:44:24 Writing application : mkvmerge v8.3.0 ('Over the Horizon') 64bit Writing library : libebml v1.3.1 + libmatroska v1.4.2

Video ID : 1 Format : AVC Format/Info : Advanced Video Codec Format profile : [email protected] Format settings, CABAC : Yes Format settings, ReFrames : 4 frames Codec ID : V_MPEG4/ISO/AVC Duration : 2h 31mn Bit rate : 10.2 Mbps Width : 1 920 pixels Height : 800 pixels Display aspect ratio : 2.40:1 Frame rate mode : Constant Frame rate : 23.976 (24000/1001) fps Color space : YUV Chroma subsampling : 4:2:0 Bit depth : 8 bits Scan type : Progressive Bits/(Pixel*Frame) : 0.277 Stream size : 10.8 GiB (79%) Writing library : x264 core 148 r2692+46 0f71ed5 7mod [[email protected] X86_64] Encoding settings : cabac=1 / ref=4 / deblock=1:-3:-3 / analyse=0x3:0x113 / me=umh / subme=11 / psy=1 / fade_compensate=0.00 / psy_rd=1.00:0.10 / mixed_ref=1 / me_range=48 / chroma_me=1 / trellis=2 / 8x8dct=1 / cqm=0 / deadzone=21,11 / fast_pskip=0 / chroma_qp_offset=-2 / threads=12 / lookahead_threads=2 / sliced_threads=0 / nr=0 / decimate=1 / interlaced=0 / bluray_compat=0 / constrained_intra=0 / fgo=0 / bframes=8 / b_pyramid=2 / b_adapt=2 / b_bias=0 / direct=3 / weightb=1 / open_gop=0 / weightp=2 / keyint=250 / keyint_min=23 / scenecut=40 / intra_refresh=0 / rc_lookahead=40 / rc=crf / mbtree=0 / crf=17.0000 / qcomp=0.60 / qpmin=0:0:0 / qpmax=69:69:69 / qpstep=4 / vbv_maxrate=50000 / vbv_bufsize=45000 / crf_max=0.0 / nal_hrd=none / filler=0 / ip_ratio=1.40 / pb_ratio=1.30 / aq=4:1.00 / aq-sensitivity=10.00 / aq-factor=1.00:1.00:1.00 / aq2=0 / aq3=0 Language : English Default : Yes Forced : No Color range : Limited Matrix coefficients : BT.709

Audio #1 ID : 2 Format : DTS Format/Info : Digital Theater Systems Mode : 16 Format settings, Endianness : Big Codec ID : A_DTS Duration : 2h 31mn Bit rate mode : Constant Bit rate : 768 Kbps Channel(s) : 6 channels Channel positions : Front: L C R, Side: L R, LFE Sampling rate : 48.0 KHz Frame rate : 93.750 fps (512 spf) Bit depth : 24 bits Compression mode : Lossy Stream size : 831 MiB (6%) Language : Russian Default : Yes Forced : No

Audio #2 ID : 3 Format : AC-3 Format/Info : Audio Coding 3 Mode extension : CM (complete main) Format settings, Endianness : Big Codec ID : A_AC3 Duration : 2h 31mn Bit rate mode : Constant Bit rate : 448 Kbps Channel(s) : 6 channels Channel positions : Front: L C R, Side: L R, LFE Sampling rate : 48.0 KHz Frame rate : 31.250 fps (1536 spf) Compression mode : Lossy Stream size : 485 MiB (3%) Language : Russian Default : No Forced : No

Audio #3 ID : 4 Format : DTS Format/Info : Digital Theater Systems Mode : 16 Format settings, Endianness : Big Codec ID : A_DTS Duration : 2h 31mn Bit rate mode : Constant Bit rate : 1 509 Kbps Channel(s) : 6 channels Channel positions : Front: L C R, Side: L R, LFE Sampling rate : 48.0 KHz Frame rate : 93.750 fps (512 spf) Bit depth : 24 bits Compression mode : Lossy Stream size : 1.60 GiB (12%) Language : English Default : No Forced : No

Text ID : 5 Format : UTF-8 Codec ID : S_TEXT/UTF8 Codec ID/Info : UTF-8 Plain Text Duration : 2h 31mn Bit rate : 50 bps Count of elements : 1944 Stream size : 56.1 KiB (0%) Language : English Default : No Forced : No

Menu 00:00:00.000 : en:Chapter 01 00:03:22.285 : en:Chapter 03 00:10:15.156 : en:Chapter 05 00:15:24.590 : en:Chapter 07 00:18:25.187 : en:Chapter 09 00:21:58.817 : en:Chapter 11 00:24:52.532 : en:Chapter 13 00:29:17.130 : en:Chapter 15 00:32:01.085 : en:Chapter 17 00:34:45.541 : en:Chapter 19 00:40:08.155 : en:Chapter 21 00:42:48.315 : en:Chapter 23 00:47:50.075 : en:Chapter 25 00:51:12.736 : en:Chapter 27 00:58:03.396 : en:Chapter 29 01:01:41.614 : en:Chapter 31 01:04:24.944 : en:Chapter 33 01:08:54.254 : en:Chapter 35 01:11:54.101 : en:Chapter 37 01:16:33.505 : en:Chapter 39 01:22:05.503 : en:Chapter 41 01:26:19.715 : en:Chapter 43 01:37:47.653 : en:Chapter 45 01:44:36.478 : en:Chapter 47 01:50:38.381 : en:Chapter 49 01:53:22.670 : en:Chapter 51 01:59:17.566 : en:Chapter 53 02:03:51.006 : en:Chapter 55 02:07:32.352 : en:Chapter 57 02:14:24.723 : en:Chapter 59 02:20:48.397 : en:Chapter 61 02:23:11.832 : en:Chapter 63 02:31:20.404 : en:Chapter 64

krutor.org

Скачать торрент Марсианин / The Martian (2015) BDRemux 1080p от ExKinoRay | Расширенная версия

Информация о фильмеНазвание: МарсианинОригинальное название: The MartianГод выхода: 2015Жанр: Фантастика, приключенияРежиссер: Ридли СкоттВ ролях: Мэтт Дэймон, Джессика Честейн, Чиветел Эджиофор, Кристен Уиг, Джефф Дэниелс, Майкл Пенья, Шон Бин, Кейт Мара, Себастьян Стэн, Аксель Хенни, Бенедикт Вонг, Маккензи Дэвис, Дональд Гловер, Ник Мохаммед, Чен Шу, Эдди Ко, Энцо Чиленти, Джонатан Арис, Граффадд Глин, Наоми Скотт

О фильме: Марсианская миссия «Арес-3» в процессе работы была вынуждена экстренно покинуть планету из-за надвигающейся песчаной бури. Инженер и биолог Марк Уотни получил повреждение скафандра во время песчаной бури. Сотрудники миссии, посчитав его погибшим, эвакуировались с планеты, оставив Марка одного. Очнувшись, Уотни обнаруживает, что связь с Землёй отсутствует, но при этом полностью функционирует жилой модуль. Главный герой начинает искать способ продержаться на имеющихся запасах еды, витаминов, воды и воздуха ещё 4 года до прилёта следующей миссии «Арес-4».

Страна: СШАСтудия: 20th Century Fox Film Corporation, Genre FilmsПродолжительность: 02:31:20Перевод: Дублированный

ФайлКодек: MPEG-4Качество: BDRemux 1080pВидео: 1920x1080, 26,9 Мbit/s, 23.976 fpsЗвук: Аудио #01: 48 kHz, DTS, 5.1, 768 Kbps | Дублированный |DTS Аудио #02: 48 kHz, DTS-HD MA, 7.1, 4968 kbps | Оригинал |DTS-HD MA Субтитры: Английские

Релиз от: Автор релиза:

Примечание

Расширенные сцены озвучены студией "Omskbird records". + субтитры на азиатскую речь.

MI

General Unique ID : 238341667642141549007800975322421456905 (0xB34EEF7B0250C822BC10C9361CA4F009) Complete name : F:VideoThe.Martian.2015.EXTENDED.BDREMUX.1080p.ExKinoRay.mkv Format : Matroska Format version : Version 4 / Version 2 File size : 34.5 GiB Duration : 2h 31mn Overall bit rate mode : Variable Overall bit rate : 32.6 Mbps Movie name : The.Martian.2015.EXTENDED.BDREMUX.1080p.ExKinoRay Encoded date : UTC 2016-06-22 15:14:49 Writing application : mkvmerge v8.3.0 ('Over the Horizon') 64bit Writing library : libebml v1.3.1 + libmatroska v1.4.2

Video ID : 1 Format : AVC Format/Info : Advanced Video Codec Format profile : [email protected] Format settings, CABAC : Yes Format settings, ReFrames : 4 frames Codec ID : V_MPEG4/ISO/AVC Duration : 2h 31mn Bit rate mode : Variable Bit rate : 26.9 Mbps Maximum bit rate : 34.0 Mbps Width : 1 920 pixels Height : 1 080 pixels Display aspect ratio : 16:9 Frame rate mode : Constant Frame rate : 23.976 (24000/1001) fps Color space : YUV Chroma subsampling : 4:2:0 Bit depth : 8 bits Scan type : Progressive Bits/(Pixel*Frame) : 0.540 Stream size : 28.4 GiB (82%) Title : The.Martian.2015.EXTENDED.BDREMUX.1080p.ExKinoRay.***selezen*** Language : English Default : No Forced : No

Audio #1 ID : 2 Format : DTS Format/Info : Digital Theater Systems Mode : 16 Format settings, Endianness : Big Codec ID : A_DTS Duration : 2h 31mn Bit rate mode : Constant Bit rate : 768 Kbps Channel(s) : 6 channels Channel positions : Front: L C R, Side: L R, LFE Sampling rate : 48.0 KHz Frame rate : 93.750 fps (512 spf) Bit depth : 24 bits Compression mode : Lossy Stream size : 831 MiB (2%) Language : Russian Default : Yes Forced : No

Audio #2 ID : 3 Format : DTS Format/Info : Digital Theater Systems Format profile : MA / Core Mode : 16 Format settings, Endianness : Big Codec ID : A_DTS Duration : 2h 31mn Bit rate mode : Variable / Constant Bit rate : 4 968 Kbps / 1 509 Kbps Channel(s) : 8 channels / 6 channels Channel positions : Front: L C R, Side: L R, Back: L R, LFE / Front: L C R, Side: L R, LFE Sampling rate : 48.0 KHz Frame rate : 93.750 fps (512 spf) Bit depth : 24 bits Compression mode : Lossless / Lossy Stream size : 5.25 GiB (15%) Title : Original Language : English Default : No Forced : No

Text #1 ID : 4 Format : UTF-8 Codec ID : S_TEXT/UTF8 Codec ID/Info : UTF-8 Plain Text Duration : 47s 723ms Bit rate : 150 bps Count of elements : 12 Stream size : 899 Bytes (0%) Language : Russian Default : Yes Forced : No

Text #2 ID : 5 Format : UTF-8 Codec ID : S_TEXT/UTF8 Codec ID/Info : UTF-8 Plain Text Duration : 2h 31mn Bit rate : 50 bps Count of elements : 1944 Stream size : 56.1 KiB (0%) Language : English Default : No Forced : No

Menu 00:00:00.000 : en:Chapter 01 00:03:22.285 : en:Chapter 03 00:10:15.156 : en:Chapter 05 00:15:24.590 : en:Chapter 07 00:18:25.187 : en:Chapter 09 00:21:58.817 : en:Chapter 11 00:24:52.532 : en:Chapter 13 00:29:17.130 : en:Chapter 15 00:32:01.085 : en:Chapter 17 00:34:45.541 : en:Chapter 19 00:40:08.155 : en:Chapter 21 00:42:48.315 : en:Chapter 23 00:47:50.075 : en:Chapter 25 00:51:12.736 : en:Chapter 27 00:58:03.396 : en:Chapter 29 01:01:41.614 : en:Chapter 31 01:04:24.944 : en:Chapter 33 01:08:54.254 : en:Chapter 35 01:11:54.101 : en:Chapter 37 01:16:33.505 : en:Chapter 39 01:22:05.503 : en:Chapter 41 01:26:19.715 : en:Chapter 43 01:37:47.653 : en:Chapter 45 01:44:36.478 : en:Chapter 47 01:50:38.381 : en:Chapter 49 01:53:22.670 : en:Chapter 51 01:59:17.566 : en:Chapter 53 02:03:51.006 : en:Chapter 55 02:07:32.352 : en:Chapter 57 02:14:24.723 : en:Chapter 59 02:20:48.397 : en:Chapter 61 02:23:11.832 : en:Chapter 63 02:31:20.404 : en:Chapter 64

krutor.org

Скачать торрент Марсианин / The Martian (2015) BDRip 1080p от NNNB

Марсианин / The Martian«Верните его домой»Русское название: МарсианинОригинальное название: The MartianГод выпуска: 2015Жанр: фантастика, приключенияВыпущено: США, ВеликобританияРежиссер: Ридли Скотт В ролях: Мэтт Дэймон , Джессика Честейн , Чиветель Эджиофор , Кристен Уиг , Джефф Дэниелс , Майкл Пенья , Шон Бин , Кейт Мара , Себастьян Стэн , Аксель Хенни , Бенедикт Вонг , Маккензи Дэвис Перевод: Дублированный - [Лицензия], Авторский одноголосыйСюжет фильма: Марсианская миссия «Арес-3» в процессе работы была вынуждена экстренно покинуть планету из-за надвигающейся песчаной бури. Инженер и биолог Марк Уотни получил повреждение скафандра во время песчаной бури. Сотрудники миссии, посчитав его погибшим, эвакуировались с планеты, оставив Марка одного. Очнувшись, Уотни обнаруживает, что связь с Землёй отсутствует, но при этом полностью функционирует жилой модуль. Главный герой начинает искать способ продержаться на имеющихся запасах еды, витаминов, воды и воздуха ещё 4 года до прилёта следующей миссии «Арес-4».

Качество: BDRip 1080pФормат: AVC \(библиотека кодирования x.264\)Контейнер (Расширение): MKVВидео: 1920x800, 9465 Кбит/сек, 23,976 кадр/сек, 0,257 Бит/[Пиксели*Кадры]Аудио №1: русский / AC3 / 5.1 / 48 kHz / 448 kbps / 16 bit |DUB, Blu-Ray CEE| Аудио №2: русский / AC3 / 5.1 / 48 kHz / 640 kbps / 16 bit |AVO, Д.Есарев| Аудио №3: русский / AC3 / 5.1 / 48 kHz / 448 kbps / 16 bit |AVO, Ю.Живов| Аудио №4: английский / AC3 / 5.1 / 48 kHz / 640 kbps /Субтитры: русские (Forced), русские (Full), английские (Forced), английские (Full), английские (SDH), английские (SDH-Colored)Навигация по главам(Чаптеры): естьПродолжительность: 02:21:37

Автор рипа: Сообщество:

MediaInfo

Format : Matroska Format version : Version 2 File size : 11.5 GiB Duration : 2h 21mn Overall bit rate : 11.6 Mbps Movie name : The Martian.(2015).BDRip.1080p.[denis100] Encoded date : UTC 2016-02-08 16:05:08 Writing application : mkvmerge v5.8.0 ('No Sleep / Pillow') built on Sep 2 2012 15:37:04 Writing library : libebml v1.2.3 + libmatroska v1.3.0

Video ID : 1 Format : AVC Format/Info : Advanced Video Codec Format profile : [email protected] Format settings, CABAC : Yes Format settings, ReFrames : 5 frames Codec ID : V_MPEG4/ISO/AVC Duration : 2h 21mn Bit rate : 9 465 Kbps Width : 1 920 pixels Height : 800 pixels Display aspect ratio : 2.40:1 Frame rate : 23.976 fps Color space : YUV Chroma subsampling : 4:2:0 Bit depth : 8 bits Scan type : Progressive Bits/(Pixel*Frame) : 0.257 Stream size : 9.13 GiB (79%) Title : The Martian.(2015).BDRip.1080p.[denis100] Writing library : x264 core 148 r2638 7599210 Encoding settings : cabac=1 / ref=5 / deblock=1:-3:-3 / analyse=0x3:0x133 / me=umh / subme=11 / psy=1 / psy_rd=1.00:0.00 / mixed_ref=1 / me_range=32 / chroma_me=1 / trellis=2 / 8x8dct=1 / cqm=0 / deadzone=21,11 / fast_pskip=0 / chroma_qp_offset=-2 / threads=6 / lookahead_threads=1 / sliced_threads=0 / nr=0 / decimate=1 / interlaced=0 / bluray_compat=0 / constrained_intra=0 / bframes=10 / b_pyramid=2 / b_adapt=2 / b_bias=0 / direct=3 / weightb=1 / open_gop=0 / weightp=2 / keyint=240 / keyint_min=23 / scenecut=40 / intra_refresh=0 / rc=2pass / mbtree=0 / bitrate=9465 / ratetol=1.0 / qcomp=0.60 / qpmin=0 / qpmax=69 / qpstep=4 / cplxblur=20.0 / qblur=0.5 / ip_ratio=1.40 / pb_ratio=1.30 / aq=1:1.00 Language : English Default : Yes Forced : No

Audio #1 ID : 2 Format : AC-3 Format/Info : Audio Coding 3 Mode extension : CM (complete main) Codec ID : A_AC3 Duration : 2h 21mn Bit rate mode : Constant Bit rate : 448 Kbps Channel(s) : 6 channels Channel positions : Front: L C R, Side: L R, LFE Sampling rate : 48.0 KHz Bit depth : 16 bits Compression mode : Lossy Stream size : 454 MiB (4%) Title : DUB, BD CEE Language : Russian Default : Yes Forced : No

Audio #2 ID : 3 Format : AC-3 Format/Info : Audio Coding 3 Mode extension : CM (complete main) Codec ID : A_AC3 Duration : 2h 21mn Bit rate mode : Constant Bit rate : 640 Kbps Channel(s) : 6 channels Channel positions : Front: L C R, Side: L R, LFE Sampling rate : 48.0 KHz Bit depth : 16 bits Compression mode : Lossy Stream size : 648 MiB (5%) Title : AVO, Д.Есарев Language : Russian Default : No Forced : No

Audio #3 ID : 4 Format : AC-3 Format/Info : Audio Coding 3 Mode extension : CM (complete main) Codec ID : A_AC3 Duration : 2h 21mn Bit rate mode : Constant Bit rate : 448 Kbps Channel(s) : 6 channels Channel positions : Front: L C R, Side: L R, LFE Sampling rate : 48.0 KHz Bit depth : 16 bits Compression mode : Lossy Stream size : 454 MiB (4%) Title : AVO, Ю.Живов Language : Russian Default : No Forced : No

Audio #4 ID : 5 Format : AC-3 Format/Info : Audio Coding 3 Mode extension : CM (complete main) Codec ID : A_AC3 Duration : 2h 21mn Bit rate mode : Constant Bit rate : 640 Kbps Channel(s) : 6 channels Channel positions : Front: L C R, Side: L R, LFE Sampling rate : 48.0 KHz Bit depth : 16 bits Compression mode : Lossy Stream size : 648 MiB (5%) Language : English Default : No Forced : No

Text #1 ID : 6 Format : UTF-8 Codec ID : S_TEXT/UTF8 Codec ID/Info : UTF-8 Plain Text Title : Forced Language : Russian Default : Yes Forced : No

Text #2 ID : 7 Format : UTF-8 Codec ID : S_TEXT/UTF8 Codec ID/Info : UTF-8 Plain Text Title : Full Language : Russian Default : No Forced : No

Text #3 ID : 8 Format : UTF-8 Codec ID : S_TEXT/UTF8 Codec ID/Info : UTF-8 Plain Text Title : Forced Language : English Default : No Forced : No

Text #4 ID : 9 Format : UTF-8 Codec ID : S_TEXT/UTF8 Codec ID/Info : UTF-8 Plain Text Title : Full Language : English Default : No Forced : No

Text #5 ID : 10 Format : UTF-8 Codec ID : S_TEXT/UTF8 Codec ID/Info : UTF-8 Plain Text Title : SDH Language : English Default : No Forced : No

Text #6 ID : 11 Format : UTF-8 Codec ID : S_TEXT/UTF8 Codec ID/Info : UTF-8 Plain Text Title : SDH-Colored Language : English Default : No Forced : No

Menu 00:00:00.000 : en:00:00:00.000 00:03:22.285 : en:00:03:22.285 00:10:08.983 : en:00:10:08.983 00:15:24.590 : en:00:15:24.590 00:18:25.187 : en:00:18:25.187 00:21:34.376 : en:00:21:34.376 00:24:28.091 : en:00:24:28.091 00:28:52.689 : en:00:28:52.689 00:31:36.644 : en:00:31:36.644 00:34:21.100 : en:00:34:21.100 00:39:13.434 : en:00:39:13.434 00:41:21.770 : en:00:41:21.770 00:46:23.530 : en:00:46:23.530 00:49:25.087 : en:00:49:25.087 00:56:15.747 : en:00:56:15.747 00:59:40.493 : en:00:59:40.493 01:02:23.823 : en:01:02:23.823 01:06:53.134 : en:01:06:53.134 01:09:52.980 : en:01:09:52.980 01:13:51.301 : en:01:13:51.301 01:18:38.255 : en:01:18:38.255 01:22:52.467 : en:01:22:52.467 01:30:41.269 : en:01:30:41.269 01:37:30.094 : en:01:37:30.094 01:43:31.997 : en:01:43:31.997 01:46:16.286 : en:01:46:16.286 01:50:18.737 : en:01:50:18.737 01:54:07.966 : en:01:54:07.966 01:57:49.312 : en:01:57:49.312 02:04:41.682 : en:02:04:41.682 02:11:05.732 : en:02:11:05.732 02:13:28.792 : en:02:13:28.792

x264

x264 [info]: frame I:1793 Avg QP:13.67 size:286173 x264 [info]: frame P:54157 Avg QP:16.22 size: 89792 x264 [info]: frame B:147788 Avg QP:18.03 size: 31628 x264 [info]: consecutive B-frames: 5.9% 5.1% 9.9% 23.1% 22.7% 27.5% 3.7% 0.9% 0.4% 0.3% 0.4%

krutor.org

Скачать торрент Марсианин / The Martian (2015) BDRip 1080p от ExKinoRay

Информация о фильме

Название: МарсианинОригинальное название: The MartianГод выпуска: 2015Жанр: Фантастика, приключенияВыпущено: США, 20th Century Fox Film Corporation, Genre FilmsРежиссер: Ридли СкоттВ ролях: Мэтт Дэймон, Джессика Честейн, Чиветел Эджиофор, Кристен Уиг, Джефф Дэниелс, Майкл Пенья, Шон Бин, Кейт Мара, Себастьян Стэн, Аксель Хенни, Бенедикт Вонг, Маккензи Дэвис, Дональд Гловер, Ник Мохаммед, Чен Шу, Эдди Ко, Энцо Чиленти, Джонатан Арис, Граффадд Глин, Наоми Скотт

О фильме: Марсианская миссия «Арес-3» в процессе работы была вынуждена экстренно покинуть планету из-за надвигающейся песчаной бури. Инженер и биолог Марк Уотни получил повреждение скафандра во время песчаной бури. Сотрудники миссии, посчитав его погибшим, эвакуировались с планеты, оставив Марка одного. Очнувшись, Уотни обнаруживает, что связь с Землёй отсутствует, но при этом полностью функционирует жилой модуль. Главный герой начинает искать способ продержаться на имеющихся запасах еды, витаминов, воды и воздуха ещё 4 года до прилёта следующей миссии «Арес-4».

Файл

Качество: BDRip \(1080p\)Видео: MPEG-4 AVC, 8231 Кбит/с, 1920x800, 23.976 кадр/сАудио: Русский (AC3, 6 ch, 448 Кбит/с), (DTS, 6 ch, 768 Кбит/с), украинский (AC3, 6 ch, 448 Кбит/с), английский (DTS, 6 ch, 1509 Кбит/с)Размер: 11.28 ГБПродолжительность: 02:21:37Перевод: ДублированныйСубтитры: Русские, английские, украинские

Озвучивание - Дублированное (Лицензия) Сохранены оригинальные чаптеры как на Blu-Ray.

x264

x264 [info]: frame I:1881 Avg QP:14.66 size:271969 x264 [info]: frame P:48523 Avg QP:17.43 size: 87519 x264 [info]: frame B:153334 Avg QP:19.18 size: 25980 x264 [info]: consecutive B-frames: 3.5% 3.8% 7.9% 23.5% 24.7% 30.0% 4.4% 1.0% 0.6% 0.6% x264 [info]: mb I I16..4: 16.9% 65.9% 17.1% x264 [info]: mb P I16..4: 0.9% 18.0% 0.9% P16..4: 27.0% 31.0% 10.1% 4.1% 0.4% skip: 7.7% x264 [info]: mb B I16..4: 0.1% 1.3% 0.1% B16..8: 35.2% 19.1% 3.1% direct: 6.4% skip:34.7% L0:39.7% L1:45.1% BI:15.2% x264 [info]: 8x8 transform intra:86.9% inter:50.7% x264 [info]: direct mvs spatial:99.6% temporal:0.4% x264 [info]: coded y,uvDC,uvAC intra: 94.0% 91.3% 80.9% inter: 27.7% 27.5% 13.6% x264 [info]: i16 v,h,dc,p: 28% 12% 21% 40% x264 [info]: i8 v,h,dc,ddl,ddr,vr,hd,vl,hu: 8% 8% 13% 10% 13% 12% 12% 11% 13% x264 [info]: i4 v,h,dc,ddl,ddr,vr,hd,vl,hu: 11% 10% 9% 8% 14% 13% 13% 10% 12% x264 [info]: i8c dc,h,v,p: 55% 18% 14% 13% x264 [info]: Weighted P-Frames: Y:8.1% UV:5.0% x264 [info]: ref P L0: 54.5% 9.7% 20.2% 8.9% 5.9% 0.8% 0.1% x264 [info]: ref B L0: 80.6% 14.9% 3.4% 1.1% x264 [info]: ref B L1: 94.6% 5.4% x264 [info]: kb/s:8229.93

Инфо-файл

Общее Уникальный идентификатор : 247091830108406597000258932255457420886 (0xB9E427CC5A406A6092A674FC948E2656) Полное имя : D:ЗагрузкиThe.Martian.2015.x264.BDRip.(1080p).ExKinoRay.mkv Формат : Matroska Версия формата : Version 2 Размер файла : 11,3 Гбайт Продолжительность : 2 ч. 21 м. Общий поток : 11,4 Мбит/сек Название фильма : Марсианин.2015.Rip by: ollan Дата кодирования : UTC 2016-01-09 19:16:49 Программа кодирования : mkvmerge v5.6.0 ('Kenya Kane') built on May 27 2012 16:44:04 Библиотека кодирования : libebml v1.2.3 + libmatroska v1.3.0

Видео Идентификатор : 1 Формат : AVC Формат/Информация : Advanced Video Codec Профиль формата : [email protected] Параметр CABAC формата : Да Параметр ReFrames формата : 5 кадров Идентификатор кодека : V_MPEG4/ISO/AVC Продолжительность : 2 ч. 21 м. Битрейт : 8231 Кбит/сек Ширина : 1920 пикселей Высота : 800 пикселей Соотношение сторон : 2,40:1 Режим частоты кадров : Постоянный Частота кадров : 23,976 кадра/сек Цветовое пространство : YUV Субдискретизация насыщенности : 4:2:0 Битовая глубина : 8 бит Тип развёртки : Прогрессивная Бит/(Пиксели*Кадры) : 0.224 Размер потока : 7,92 Гбайт (70%) Библиотека кодирования : x264 core 125 r2200 999b753 Настройки программы : cabac=1 / ref=5 / deblock=1:-3:-3 / analyse=0x3:0x133 / me=umh / subme=11 / psy=1 / psy_rd=1.00:0.05 / mixed_ref=1 / me_range=48 / chroma_me=1 / trellis=2 / 8x8dct=1 / cqm=0 / deadzone=21,11 / fast_pskip=0 / chroma_qp_offset=-3 / threads=12 / lookahead_threads=2 / sliced_threads=0 / nr=0 / decimate=0 / interlaced=0 / bluray_compat=0 / constrained_intra=0 / bframes=9 / b_pyramid=2 / b_adapt=2 / b_bias=0 / direct=3 / weightb=1 / open_gop=0 / weightp=2 / keyint=240 / keyint_min=23 / scenecut=40 / intra_refresh=0 / rc=2pass / mbtree=0 / bitrate=8231 / ratetol=1.0 / qcomp=0.60 / qpmin=0 / qpmax=69 / qpstep=4 / cplxblur=20.0 / qblur=0.5 / ip_ratio=1.40 / pb_ratio=1.30 / aq=1:1.00 Язык : English Default : Да Forced : Нет

Аудио #1 Идентификатор : 2 Формат : AC-3 Формат/Информация : Audio Coding 3 Расширение режима : CM (complete main) Параметр Endianness формата : Big Идентификатор кодека : A_AC3 Продолжительность : 2 ч. 21 м. Вид битрейта : Постоянный Битрейт : 448 Кбит/сек Каналы : 6 каналов Расположение каналов : Front: L C R, Side: L R, LFE Частота : 48,0 КГц Битовая глубина : 16 бит Метод сжатия : С потерями Размер потока : 454 Мбайт (4%) Заголовок : Дублированный (Лицензия) Язык : Russian Default : Да Forced : Нет

Аудио #2 Идентификатор : 3 Формат : DTS Формат/Информация : Digital Theater Systems Режим : 16 Параметр Endianness формата : Big Идентификатор кодека : A_DTS Продолжительность : 2 ч. 21 м. Вид битрейта : Постоянный Битрейт : 768 Кбит/сек Каналы : 6 каналов Расположение каналов : Front: L C R, Side: L R, LFE Частота : 48,0 КГц Битовая глубина : 24 бит Метод сжатия : С потерями Размер потока : 778 Мбайт (7%) Заголовок : Дублированный (Лицензия) Язык : Russian Default : Нет Forced : Нет

Аудио #3 Идентификатор : 4 Формат : AC-3 Формат/Информация : Audio Coding 3 Расширение режима : CM (complete main) Параметр Endianness формата : Big Идентификатор кодека : A_AC3 Продолжительность : 2 ч. 21 м. Вид битрейта : Постоянный Битрейт : 448 Кбит/сек Каналы : 6 каналов Расположение каналов : Front: L C R, Side: L R, LFE Частота : 48,0 КГц Битовая глубина : 16 бит Метод сжатия : С потерями Размер потока : 454 Мбайт (4%) Заголовок : Дублированный (Лицензия) Язык : Ukrainian Default : Нет Forced : Нет

Аудио #4 Идентификатор : 5 Формат : DTS Формат/Информация : Digital Theater Systems Режим : 16 Параметр Endianness формата : Big Идентификатор кодека : A_DTS Продолжительность : 2 ч. 21 м. Вид битрейта : Постоянный Битрейт : 1509 Кбит/сек Каналы : 6 каналов Расположение каналов : Front: L C R, Side: L R, LFE Частота : 48,0 КГц Битовая глубина : 24 бит Метод сжатия : С потерями Размер потока : 1,49 Гбайт (13%) Язык : English Default : Нет Forced : Нет

Текст #1 Идентификатор : 6 Формат : UTF-8 Идентификатор кодека : S_TEXT/UTF8 Идентификатор кодека/Информация : UTF-8 Plain Text Заголовок : Forced Язык : Russian Default : Да Forced : Нет

Текст #2 Идентификатор : 7 Формат : UTF-8 Идентификатор кодека : S_TEXT/UTF8 Идентификатор кодека/Информация : UTF-8 Plain Text Заголовок : Full Язык : Russian Default : Нет Forced : Нет

Текст #3 Идентификатор : 8 Формат : UTF-8 Идентификатор кодека : S_TEXT/UTF8 Идентификатор кодека/Информация : UTF-8 Plain Text Заголовок : Forced Язык : Ukrainian Default : Нет Forced : Нет

Текст #4 Идентификатор : 9 Формат : UTF-8 Идентификатор кодека : S_TEXT/UTF8 Идентификатор кодека/Информация : UTF-8 Plain Text Заголовок : Full Язык : Ukrainian Default : Нет Forced : Нет

Текст #5 Идентификатор : 10 Формат : UTF-8 Идентификатор кодека : S_TEXT/UTF8 Идентификатор кодека/Информация : UTF-8 Plain Text Заголовок : Full Язык : English Default : Нет Forced : Нет

Меню 00:00:00.000 : en:Chapter 01 00:03:22.285 : en:Chapter 03 00:10:08.983 : en:Chapter 05 00:15:24.590 : en:Chapter 07 00:18:25.187 : en:Chapter 09 00:21:34.376 : en:Chapter 11 00:24:28.091 : en:Chapter 13 00:28:52.689 : en:Chapter 15 00:31:36.644 : en:Chapter 17 00:34:21.100 : en:Chapter 19 00:39:13.434 : en:Chapter 21 00:41:21.770 : en:Chapter 23 00:46:23.530 : en:Chapter 25 00:49:25.087 : en:Chapter 27 00:56:15.747 : en:Chapter 29 00:59:40.493 : en:Chapter 31 01:02:23.823 : en:Chapter 33 01:06:53.134 : en:Chapter 35 01:09:52.980 : en:Chapter 37 01:13:51.301 : en:Chapter 39 01:18:38.255 : en:Chapter 41 01:22:52.467 : en:Chapter 43 01:30:41.269 : en:Chapter 45 01:37:30.094 : en:Chapter 47 01:43:31.997 : en:Chapter 49 01:46:16.286 : en:Chapter 51 01:50:18.737 : en:Chapter 53 01:54:07.966 : en:Chapter 55 01:57:49.312 : en:Chapter 57 02:04:41.682 : en:Chapter 59 02:11:05.732 : en:Chapter 61 02:13:28.792 : en:Chapter 63 02:21:37.322 : en:Chapter 64

Релиз от: Rip by:

krutor.org

Скачать торрент Марсианин / The Martian (2015) BDRip 1080p

Производство: США, Великобритания / 20th Century Fox Film Corporation, Genre Films, International TradersЖанр: фантастика, приключения

Режиссер: Ридли СкоттПродюсер: Марк Хаффам, Саймон Кинберг, Майкл ШеферАктеры: Мэтт Дэймон, Джессика Честейн, Чиветель Эджиофор, Кристен Уиг, Джефф Дэниелс, Майкл Пенья, Шон Бин, Кейт Мара, Себастьян Стэн, Аксель Хенни

Описание: Марсианская миссия «Арес-3» в процессе работы была вынуждена экстренно покинуть планету из-за надвигающейся песчаной бури. Инженер и биолог Марк Уотни получил повреждение скафандра во время песчаной бури. Сотрудники миссии, посчитав его погибшим, эвакуировались с планеты, оставив Марка одного. Очнувшись, Уотни обнаруживает, что связь с Землёй отсутствует, но при этом полностью функционирует жилой модуль. Главный герой начинает искать способ продержаться на имеющихся запасах еды, витаминов, воды и воздуха ещё 4 года до прилёта следующей миссии «Арес-4».

Рейтинг MPAA: PG-13 - детям до 13 лет просмотр не желателенДата мировой премьеры: 11 сентября 2015Дата российской премьеры: 8 октября 2015, «Двадцатый Век Фокс СНГ» 3D

Продолжительность: 02:21:51Качество: BDRip 1080p \(Сцен-рип\)Перевод: Профессиональный (полное дублирование) (iTunes)Вид субтитров: Вшитые, отключаемыеЯзык субтитров: Русский, Английский

Видео: MPEG-4 AVC/H.264, 1920x800, (2,40:1), 9 543 kbps, 23.976 fps, 0.259 b/pxАудио: AC3, 6 ch, 384 kbps - РусскийАудио: DTS, 6 ch, 1509 kbps - Английский

MediaInfo:

General Unique ID : 172305296920517419727517329992565487687 (0x81A0CB080CACE98E83BC533AC8617847) Complete name : Marsianin BDRip 1080p.2015.D.iTunes.mkv Format : Matroska Format version : Version 4 / Version 2 File size : 11.3 GiB Duration : 2h 21mn Overall bit rate : 11.4 Mbps Encoded date : UTC 2015-12-29 22:09:46 Writing application : mkvmerge v8.3.0 ('Over the Horizon') 64bit Writing library : libebml v1.3.1 + libmatroska v1.4.2 DURATION : 02:15:59.276000000 NUMBER_OF_FRAMES : 2145 NUMBER_OF_BYTES : 63758 _STATISTICS_WRITING_APP : mkvmerge v8.3.0 ('Over the Horizon') 64bit _STATISTICS_WRITING_DATE_UTC : 2015-12-29 22:09:46 _STATISTICS_TAGS : BPS DURATION NUMBER_OF_FRAMES NUMBER_OF_BYTES

Video ID : 1 Format : AVC Format/Info : Advanced Video Codec Format profile : [email protected] Format settings, CABAC : Yes Format settings, ReFrames : 5 frames Codec ID : V_MPEG4/ISO/AVC Duration : 2h 21mn Bit rate : 9 543 Kbps Width : 1 920 pixels Height : 800 pixels Display aspect ratio : 2.40:1 Frame rate mode : Constant Frame rate : 23.976 fps Color space : YUV Chroma subsampling : 4:2:0 Bit depth : 8 bits Scan type : Progressive Bits/(Pixel*Frame) : 0.259 Stream size : 9.21 GiB (81%) Writing library : x264 core 148 r2638 7599210 Encoding settings : cabac=1 / ref=5 / deblock=1:0:0 / analyse=0x3:0x113 / me=umh / subme=8 / psy=1 / psy_rd=1.00:0.00 / mixed_ref=1 / me_range=16 / chroma_me=1 / trellis=1 / 8x8dct=1 / cqm=0 / deadzone=21,11 / fast_pskip=0 / chroma_qp_offset=-2 / threads=24 / lookahead_threads=4 / sliced_threads=0 / nr=0 / decimate=1 / interlaced=0 / bluray_compat=0 / constrained_intra=0 / bframes=3 / b_pyramid=2 / b_adapt=2 / b_bias=0 / direct=3 / weightb=1 / open_gop=0 / weightp=2 / keyint=250 / keyint_min=23 / scenecut=40 / intra_refresh=0 / rc_lookahead=50 / rc=2pass / mbtree=1 / bitrate=9543 / ratetol=1.0 / qcomp=0.60 / qpmin=0 / qpmax=69 / qpstep=4 / cplxblur=20.0 / qblur=0.5 / ip_ratio=1.40 / aq=1:1.00 Language : English Default : Yes Forced : No DURATION : 02:21:37.573000000 NUMBER_OF_FRAMES : 203736 NUMBER_OF_BYTES : 10123147160 _STATISTICS_WRITING_APP : mkvmerge v8.3.0 ('Over the Horizon') 64bit _STATISTICS_WRITING_DATE_UTC : 2015-12-29 22:09:46 _STATISTICS_TAGS : BPS DURATION NUMBER_OF_FRAMES NUMBER_OF_BYTES

Audio #1 ID : 2 Format : AC-3 Format/Info : Audio Coding 3 Mode extension : CM (complete main) Format settings, Endianness : Big Codec ID : A_AC3 Duration : 2h 21mn Bit rate mode : Constant Bit rate : 384 Kbps Channel(s) : 6 channels Channel positions : Front: L C R, Side: L R, LFE Sampling rate : 48.0 KHz Bit depth : 16 bits Compression mode : Lossy Stream size : 389 MiB (3%) Language : Russian Default : Yes Forced : No

Audio #2 ID : 3 Format : DTS Format/Info : Digital Theater Systems Mode : 16 Format settings, Endianness : Big Codec ID : A_DTS Duration : 2h 21mn Bit rate mode : Constant Bit rate : 1 509 Kbps Channel(s) : 6 channels Channel positions : Front: L C R, Side: L R, LFE Sampling rate : 48.0 KHz Bit depth : 24 bits Compression mode : Lossy Stream size : 1.49 GiB (13%) Language : English Default : No Forced : No

Text #1 ID : 4 Format : UTF-8 Codec ID : S_TEXT/UTF8 Codec ID/Info : UTF-8 Plain Text Title : Forced Language : Russian Default : No Forced : No

Text #2 ID : 5 Format : UTF-8 Codec ID : S_TEXT/UTF8 Codec ID/Info : UTF-8 Plain Text Default : Yes Forced : No

Text #3 ID : 6 Format : UTF-8 Codec ID : S_TEXT/UTF8 Codec ID/Info : UTF-8 Plain Text Default : No Forced : No

Text #4 ID : 7 Format : UTF-8 Codec ID : S_TEXT/UTF8 Codec ID/Info : UTF-8 Plain Text Title : sdh Default : No Forced : No

Menu 00:00:00.000 : en:00:00:00.000 00:03:22.285 : en:00:03:22.285 00:10:08.983 : en:00:10:08.983 00:15:24.590 : en:00:15:24.590 00:18:25.187 : en:00:18:25.187 00:21:34.376 : en:00:21:34.376 00:24:28.092 : en:00:24:28.092 00:28:52.689 : en:00:28:52.689 00:31:36.645 : en:00:31:36.645 00:34:21.101 : en:00:34:21.101 00:39:13.434 : en:00:39:13.434 00:41:21.771 : en:00:41:21.771 00:46:23.531 : en:00:46:23.531 00:49:25.087 : en:00:49:25.087 00:56:15.747 : en:00:56:15.747 00:59:40.494 : en:00:59:40.494 01:02:23.823 : en:01:02:23.823 01:06:53.134 : en:01:06:53.134 01:09:52.980 : en:01:09:52.980 01:13:51.302 : en:01:13:51.302 01:18:38.255 : en:01:18:38.255 01:22:52.467 : en:01:22:52.467 01:30:41.269 : en:01:30:41.269 01:37:30.094 : en:01:37:30.094 01:43:31.997 : en:01:43:31.997 01:46:16.287 : en:01:46:16.287 01:50:18.737 : en:01:50:18.737 01:54:07.966 : en:01:54:07.966 01:57:49.312 : en:01:57:49.312 02:04:41.683 : en:02:04:41.683 02:11:05.733 : en:02:11:05.733 02:13:28.792 : en:02:13:28.792

Скриншоты: Время раздачи: 24/7

krutor.org


Смотрите также